<?xml version="1.0" standalone="no"?>
<!DOCTYPE svg PUBLIC "-//W3C//DTD SVG 1.1//EN" "http://www.w3.org/Graphics/SVG/1.1/DTD/svg11.dtd" >
<svg xmlns="http://www.w3.org/2000/svg" xmlns:xlink="http://www.w3.org/1999/xlink" version="1.1">
<metadata>
Created by FontForge 20201107 at Thu May 16 07:11:18 2013
 By 
Copyright (c) 2009, 2013 Cadson Demak Co. Ltd., Thailand. All Rights Reserved.
</metadata>
<defs>
<font id="SukhumvitSet-Text" horiz-adv-x="0" >
  <font-face 
    font-family="Sukhumvit Set"
    font-weight="400"
    font-stretch="normal"
    units-per-em="1000"
    panose-1="2 0 5 6 0 0 0 2 0 4"
    ascent="800"
    descent="-200"
    x-height="483"
    cap-height="674"
    bbox="-581 -417 1113 1021"
    underline-thickness="50"
    underline-position="-125"
    unicode-range="U+000D-FB02"
  />
<missing-glyph horiz-adv-x="515" 
d="M60 0v673h395v-673h-395zM119 59h276v556h-276v-556z" />
    <glyph glyph-name="uni0E5A" unicode="&#xe2f;&#xe2f;" horiz-adv-x="727" 
d="M381 0v422q-10 -21 -28 -39t-41.5 -31t-51 -20.5t-57.5 -7.5q-45 0 -76.5 14.5t-51 41t-28.5 62.5t-9 80v38h73v-39q0 -69 25.5 -103t81.5 -34q31 0 61.5 14t54 36.5t38 50.5t14.5 57v18h71v-177q25 9 46.5 27t37.5 40t25.5 46t9.5 46v18h72v-560h-76v422
q-15 -32 -45 -58t-70 -40v-324h-76z" />
    <glyph glyph-name="uni0E4F.liga" unicode="&#xe4f;&#x22;" horiz-adv-x="546" 
d="M273 26q-44 0 -83 17t-68 46t-45.5 68t-16.5 83t16.5 83t45.5 68t68 45.5t83 16.5t83 -16.5t68 -45.5t45.5 -68t16.5 -83t-16.5 -83t-45.5 -68t-68 -46t-83 -17zM273 58q38 0 71 14t58 39t39 58t14 71q0 37 -14 70.5t-39 58t-58 39t-71 14.5t-71 -14.5t-57.5 -39t-39 -58
t-14.5 -70.5q0 -38 14.5 -71t39 -58t57.5 -39t71 -14zM273 119q-26 0 -48 9.5t-38.5 26t-26 38t-9.5 46.5q0 26 9.5 48t26 38.5t38.5 26t47 9.5t47.5 -9.5t39 -26t26 -38.5t9.5 -47q0 -26 -9.5 -48t-26 -38t-38.5 -25.5t-47 -9.5zM273 166q30 0 51 21t21 53q0 29 -21 50.5
t-52 21.5q-29 0 -51 -21.5t-22 -51.5q0 -29 21.5 -51t52.5 -22zM232 491h-42l-9 196h60zM358 491h-42l-9 196h60z" />
    <glyph glyph-name="uni0E24.liga" unicode="&#xe24;&#xe32;" horiz-adv-x="949" 
d="M154 91q0 -28 26 -28h54v-63h-73q-39 0 -61 23.5t-22 61.5v149q0 32 14.5 59t41.5 40l-84 71q9 31 31 61t54.5 53t73.5 37t88 14q60 0 104 -18t73 -51q34 28 80.5 48.5t103.5 20.5q51 0 91 -16t67.5 -45t41.5 -68.5t14 -86.5v-553h-76v553q0 74 -37 112.5t-104 38.5
q-48 0 -85 -16.5t-62 -42.5q9 -20 13 -43.5t4 -48.5v-553h-76v553q0 74 -39 112.5t-113 38.5q-59 0 -104 -26.5t-63 -68.5l81 -74q-57 -26 -57 -90v-154z" />
    <glyph glyph-name="uni0E26.liga" unicode="&#xe26;&#xe32;" horiz-adv-x="953" 
d="M174 84q0 -39 -22.5 -61.5t-60.5 -22.5h-59v63h41q14 0 19.5 7t5.5 20v139q0 31 15 58t41 40l-96 75q9 31 31 61.5t54.5 53.5t74 37.5t88.5 14.5q59 0 102 -17.5t72 -49.5q35 27 80.5 47t102.5 20q51 0 91 -16t67 -45t41 -68.5t14 -86.5v-553h-76v553q0 74 -37 112.5
t-104 38.5q-46 0 -83 -16.5t-62 -41.5q18 -42 18 -93v-553h-76v553q0 74 -38.5 112.5t-111.5 38.5q-60 0 -105 -27.5t-62 -68.5l93 -79q-58 -25 -58 -90v-155z" />
    <glyph glyph-name="fi" unicode="fi" horiz-adv-x="535" 
d="M455 0h-74v423h-214v-423h-72v423h-77v60h77v14q0 41 10.5 75.5t32.5 59t55.5 38t79.5 13.5q38 0 69.5 -8.5t52.5 -19.5l-17 -54q-20 11 -46.5 16.5t-54.5 5.5q-62 0 -86 -35t-24 -92v-13h288v-483z" />
    <glyph glyph-name="fl" unicode="fl" horiz-adv-x="568" 
d="M308 483v-61h-142v-422h-72v422h-76v61h76v14q0 39 14 73t41 59t67 39.5t93 14.5q47 0 92.5 -10t86.5 -27v-646h-75v608q-23 8 -47 11.5t-57 3.5q-72 0 -107.5 -35.5t-35.5 -91.5v-13h142z" />
    <glyph glyph-name=".notdef" horiz-adv-x="515" 
d="M60 0v673h395v-673h-395zM119 59h276v556h-276v-556z" />
    <glyph glyph-name=".null" 
 />
    <glyph glyph-name=".null" 
 />
    <glyph glyph-name="nonmarkingreturn" unicode="&#xd;" horiz-adv-x="195" 
 />
    <glyph glyph-name="space" unicode=" " horiz-adv-x="258" 
 />
    <glyph glyph-name="exclam" unicode="!" horiz-adv-x="248" 
d="M163 521l-11 -333h-55l-11 333v153h77v-153zM68 46q0 23 14.5 39t41.5 16t41.5 -16t14.5 -39t-14.5 -39t-41.5 -16t-41.5 16t-14.5 39z" />
    <glyph glyph-name="quotedbl" unicode="&#x22;" horiz-adv-x="329" 
d="M118 452h-48l-10 236h68zM259 452h-47l-11 236h68z" />
    <glyph glyph-name="numbersign" unicode="#" horiz-adv-x="566" 
d="M69 447h105l44 203h63l-44 -203h145l44 203h63l-44 -203h93v-54h-104l-30 -137h93v-54h-104q-11 -51 -22 -101t-22 -101h-64q11 51 22 101t22 101h-144q-11 -51 -22 -101t-22 -101h-64q11 51 22 101t22 101h-93v54h105q7 34 14.5 68.5t14.5 68.5h-93v54zM195 256h146
l30 137h-146z" />
    <glyph glyph-name="dollar" unicode="$" horiz-adv-x="566" 
d="M255 -9q-66 0 -109 10.5t-74 26.5l19 61q29 -14 69.5 -23.5t94.5 -9.5v246q-30 10 -62.5 23.5t-59 34.5t-43.5 52t-17 76q0 33 10.5 62t33 51.5t57 37t81.5 18.5v93h51v-91q44 -2 81 -11.5t67 -24.5l-18 -60q-27 12 -61 20t-69 10v-235q33 -11 65.5 -25t58.5 -35.5
t42.5 -52t16.5 -74.5q0 -80 -50.5 -123.5t-132.5 -53.5v-94h-51v91zM420 173q0 25 -9 42.5t-24.5 30.5t-36.5 22.5t-44 17.5v-226q51 8 82.5 35t31.5 78zM141 489q0 -24 9 -41.5t24 -30.5t36 -22.5t45 -18.5v214q-59 -6 -86.5 -32.5t-27.5 -68.5z" />
    <glyph glyph-name="percent" unicode="%" horiz-adv-x="768" 
d="M535 660h63l-366 -660h-63zM105 484q0 -24 4.5 -47t14 -40.5t24.5 -28t36 -10.5t36.5 10.5t25 28t14 40t4.5 46.5t-4.5 47t-14 41t-25 28.5t-36.5 10.5t-36 -11t-24.5 -28.5t-14 -40t-4.5 -46.5zM44 484q0 35 9 66.5t27 55.5t44 38.5t60 14.5t60 -14.5t44 -38.5t27 -55.5
t9 -66.5t-9 -66.5t-27 -55.5t-44 -38.5t-60 -14.5t-60 14.5t-44 38.5t-27 55.5t-9 66.5zM504 166q0 -24 4.5 -47t14 -40.5t24.5 -28t36 -10.5t36.5 10.5t25 28t14 40t4.5 46.5t-4.5 47t-14 41t-25 28.5t-36.5 10.5t-36 -11t-24.5 -28.5t-14 -40t-4.5 -46.5zM443 166
q0 35 9 66.5t27 55.5t44 38.5t60 14.5t60.5 -14.5t44.5 -38.5t27 -55.5t9 -66.5t-9 -66.5t-27 -55.5t-44.5 -38.5t-60.5 -14.5t-60 14.5t-44 38.5t-27 55.5t-9 66.5z" />
    <glyph glyph-name="ampersand" unicode="&#x26;" horiz-adv-x="630" 
d="M473 48q-77 -57 -185 -57q-58 0 -100 15t-69.5 40.5t-40.5 59.5t-13 72q0 36 11 64.5t29.5 52.5t42.5 44t50 37l-11 15q-29 39 -49.5 72.5t-20.5 77.5q0 63 42.5 102.5t120.5 39.5q41 0 71 -11.5t49.5 -31t28.5 -45.5t9 -55q0 -30 -12 -54.5t-32 -45.5t-46.5 -39.5
t-55.5 -37.5l180 -216q20 31 29.5 69t9.5 80v48h74v-48q0 -61 -17 -112t-49 -92l76 -92h-82zM291 60q41 0 75.5 10t60.5 32l-187 225q-41 -30 -68.5 -64t-27.5 -83q0 -56 38.5 -88t108.5 -32zM189 539q0 -31 13.5 -59t40.5 -58l10 -12q23 14 43.5 28.5t36 30.5t24.5 33.5
t9 38.5q0 36 -21 58.5t-66 22.5q-38 0 -64 -20.5t-26 -62.5z" />
    <glyph glyph-name="quotesingle" unicode="'" horiz-adv-x="188" 
d="M118 452h-48l-10 236h68z" />
    <glyph glyph-name="parenleft" unicode="(" horiz-adv-x="297" 
d="M72 283q0 80 16 145.5t43 117t62.5 89t74.5 62.5l19 -34q-35 -24 -62.5 -63t-46 -88.5t-28.5 -107.5t-10 -121t10 -121t28.5 -107.5t46 -89t62.5 -63.5l-19 -33q-39 25 -74.5 62.5t-62.5 88.5t-43 116.5t-16 146.5z" />
    <glyph glyph-name="parenright" unicode=")" horiz-adv-x="297" 
d="M225 283q0 -81 -16 -146.5t-43 -116.5t-62.5 -88.5t-74.5 -62.5l-19 33q35 24 62 63.5t46 89t28.5 107.5t9.5 121t-9.5 121t-28.5 107.5t-46 88.5t-62 63l19 34q39 -25 74.5 -62.5t62.5 -89t43 -117t16 -145.5z" />
    <glyph glyph-name="asterisk" unicode="*" horiz-adv-x="496" 
d="M390 610l46 -49l-142 -88v-6l142 -89l-46 -48l-117 106l-5 -4l16 -164h-72l17 165l-7 2l-116 -105l-46 48l141 88v7l-141 88l46 49l115 -104l8 2l-17 166h72l-16 -166l7 -2z" />
    <glyph glyph-name="plus" unicode="+" horiz-adv-x="566" 
d="M317 496v-182h178v-61h-178v-181h-67v181h-179v61h179v182h67z" />
    <glyph glyph-name="comma" unicode="," horiz-adv-x="236" 
d="M174 97l-71 -222h-46l29 222h88z" />
    <glyph glyph-name="hyphen" unicode="-" horiz-adv-x="316" 
d="M286 302v-60h-256v60h256z" />
    <glyph glyph-name="period" unicode="." horiz-adv-x="236" 
d="M62 46q0 23 14 39t42 16q27 0 41.5 -16t14.5 -39t-14.5 -39t-41.5 -16q-28 0 -42 16t-14 39z" />
    <glyph glyph-name="slash" unicode="/" horiz-adv-x="366" 
d="M71 -40h-61l285 714h61z" />
    <glyph glyph-name="zero" unicode="0" horiz-adv-x="566" 
d="M125 325q0 -137 40.5 -204.5t117.5 -67.5q76 0 117 67.5t41 204.5t-41 204.5t-117 67.5q-77 0 -117.5 -67.5t-40.5 -204.5zM49 325q0 158 61.5 246t172.5 88q55 0 98.5 -22.5t73.5 -65.5t46 -105t16 -141t-16 -141t-46 -105t-73.5 -65.5t-98.5 -22.5q-111 0 -172.5 88
t-61.5 246z" />
    <glyph glyph-name="one" unicode="1" horiz-adv-x="566" 
d="M257 579l-140 -45v61l154 55h62v-582h156v-68h-392v68h160v511z" />
    <glyph glyph-name="two" unicode="2" horiz-adv-x="566" 
d="M267 592q-43 0 -84 -11t-73 -27l-19 63q31 16 77 29t99 13q106 0 156 -46.5t50 -127.5q0 -41 -15 -79.5t-41 -76t-61 -74t-75 -74.5l-116 -111h329v-70h-432v58l170 172q38 39 68.5 71.5t52 62.5t33 59.5t11.5 62.5q0 52 -35.5 79t-94.5 27z" />
    <glyph glyph-name="three" unicode="3" horiz-adv-x="566" 
d="M249 57q80 0 118 34t38 91q0 60 -38.5 90t-106.5 30h-93v64h93q57 0 92 31.5t35 89.5q0 49 -35.5 77.5t-113.5 28.5q-47 0 -85 -9.5t-68 -24.5l-19 61q32 17 77.5 28t97.5 11q57 0 98.5 -13t68.5 -36.5t40 -55t13 -67.5q0 -31 -8.5 -55.5t-22.5 -42.5t-33 -31t-41 -21
q56 -12 90 -53t34 -103q0 -88 -60 -139t-170 -51q-60 0 -107 11.5t-79 28.5l19 61q30 -14 72.5 -24.5t93.5 -10.5z" />
    <glyph glyph-name="four" unicode="4" horiz-adv-x="566" 
d="M370 191v335l-239 -335h239zM380 649h62v-458h77v-65h-77v-126h-74v126h-323v52z" />
    <glyph glyph-name="five" unicode="5" horiz-adv-x="566" 
d="M250 57q81 0 124 40t43 103q0 65 -39 102t-129 37h-159v54l25 257h338v-70h-274l-16 -173h87q119 0 181 -55t62 -152q0 -49 -17 -87.5t-48.5 -65.5t-76.5 -41.5t-100 -14.5q-64 0 -111.5 12t-79.5 29l20 61q29 -14 72 -25t98 -11z" />
    <glyph glyph-name="six" unicode="6" horiz-adv-x="566" 
d="M310 364q-56 0 -100.5 -23.5t-72.5 -54.5q0 -54 12.5 -97t34.5 -73t51.5 -46.5t63.5 -16.5q63 0 100.5 43.5t37.5 121.5q0 30 -6.5 56.5t-21 46.5t-39 31.5t-60.5 11.5zM319 597q-85 0 -132.5 -64.5t-50.5 -185.5q12 13 29.5 27.5t40.5 26t51 19t62 7.5q43 0 79 -14.5
t61.5 -41.5t39.5 -66t14 -89q0 -47 -15 -88t-42.5 -71.5t-67.5 -48t-89 -17.5q-113 0 -175.5 82t-62.5 245q0 82 18 146t51.5 107t81 65.5t105.5 22.5q46 0 80.5 -9.5t63.5 -26.5l-18 -57q-55 31 -124 31z" />
    <glyph glyph-name="seven" unicode="7" horiz-adv-x="566" 
d="M72 650h427v-51l-280 -599h-79l273 585h-341v65z" />
    <glyph glyph-name="eight" unicode="8" horiz-adv-x="566" 
d="M282 51q72 0 111 33t39 91q0 61 -36 94t-114 33t-114 -33t-36 -94q0 -58 39 -91t111 -33zM282 659q97 0 151 -46t54 -125q0 -31 -8.5 -56t-23.5 -44t-34.5 -32t-41.5 -20q26 -5 49 -19t40.5 -35t27.5 -49t10 -60q0 -85 -59 -133.5t-165 -48.5t-165 48.5t-59 133.5
q0 32 10 60t27.5 49t40.5 35t49 19q-44 13 -75.5 51.5t-31.5 100.5q0 79 53.5 125t150.5 46zM282 598q-61 0 -96 -28.5t-35 -85.5q0 -59 35 -90t96 -31q62 0 96.5 31t34.5 90q0 57 -34.5 85.5t-96.5 28.5z" />
    <glyph glyph-name="nine" unicode="9" horiz-adv-x="566" 
d="M255 286q56 0 100.5 23.5t72.5 54.5q0 54 -12.5 97t-34.5 73t-51 46.5t-63 16.5q-63 0 -101 -43.5t-38 -121.5q0 -30 6.5 -56.5t21 -46.5t39 -31.5t60.5 -11.5zM240 53q97 0 141.5 65t47.5 185q-12 -13 -29.5 -27t-40.5 -26t-51 -19.5t-62 -7.5q-43 0 -79 14.5
t-61.5 41.5t-39.5 66t-14 89q0 47 15 88t42.5 71.5t67.5 48t90 17.5q52 0 96 -20.5t75.5 -62t49 -102.5t17.5 -142q0 -168 -66 -254.5t-197 -86.5q-47 0 -84.5 9.5t-66.5 24.5l18 57q28 -14 62 -21.5t69 -7.5z" />
    <glyph glyph-name="colon" unicode=":" horiz-adv-x="256" 
d="M72 422q0 23 14 39t42 16q27 0 41.5 -16t14.5 -39t-14.5 -39t-41.5 -16q-28 0 -42 16t-14 39zM72 45q0 23 14 39t42 16q27 0 41.5 -16t14.5 -39t-14.5 -39t-41.5 -16q-28 0 -42 16t-14 39z" />
    <glyph glyph-name="semicolon" unicode=";" horiz-adv-x="256" 
d="M72 422q0 23 14 39t42 16q27 0 41.5 -16t14.5 -39t-14.5 -39t-41.5 -16q-28 0 -42 16t-14 39zM178 97l-71 -222h-46l29 222h88z" />
    <glyph glyph-name="less" unicode="&#x3c;" horiz-adv-x="565" 
d="M64 311l421 231v-71l-345 -185l345 -184v-72l-421 231v50z" />
    <glyph glyph-name="equal" unicode="=" horiz-adv-x="565" 
d="M480 224v-61h-402v61h402zM480 408v-61h-402v61h402z" />
    <glyph glyph-name="greater" unicode="&#x3e;" horiz-adv-x="565" 
d="M501 261l-421 -231v72l345 184l-345 185v71l421 -231v-50z" />
    <glyph glyph-name="question" unicode="?" horiz-adv-x="488" 
d="M226 616q-43 0 -84.5 -11.5t-73.5 -27.5l-19 63q32 16 78 29.5t99 13.5q103 0 152.5 -44.5t49.5 -120.5q0 -38 -13 -68t-32.5 -55t-42.5 -46.5t-42.5 -43t-32.5 -43.5t-13 -49q0 -32 9 -53h-63q-13 23 -13 56q0 32 12.5 58t31 48t40 42.5t40 43t31 47.5t12.5 57
q0 21 -7 39.5t-22.5 33t-39.5 23t-57 8.5zM173 45q0 23 14.5 39t41.5 16t41.5 -16t14.5 -39t-14.5 -39t-41.5 -16t-41.5 16t-14.5 39z" />
    <glyph glyph-name="at" unicode="@" horiz-adv-x="816" 
d="M511 463q-16 8 -39.5 12.5t-49.5 4.5q-72 0 -103.5 -39.5t-31.5 -109.5q0 -38 8.5 -65t23 -44.5t34 -26t40.5 -8.5q25 0 47 11t37.5 30.5t24.5 47t9 59.5v128zM102 327q0 -75 23.5 -130.5t64 -92t94.5 -55t116 -18.5q41 0 81.5 10t73.5 30q0 -1 3 -6.5t6 -12t6 -12
t3 -6.5q-31 -20 -75.5 -32t-99.5 -12q-72 0 -133.5 21t-107 63t-71.5 105t-26 148q0 71 24 135.5t70 114t112.5 78.5t152.5 29q78 0 140.5 -24.5t106 -68t67 -103.5t23.5 -131q0 -60 -11 -102.5t-29.5 -70.5t-43 -41t-50.5 -13q-41 0 -64 29t-25 67q-8 -17 -22.5 -34
t-34 -30.5t-43.5 -21.5t-49 -8q-74 0 -116 53t-42 144q0 41 10 78t33.5 65.5t61 45.5t92.5 17q43 0 81.5 -9.5t70.5 -26.5v-242q0 -32 11.5 -57t40.5 -25q13 0 28 9t27.5 30.5t20.5 57.5t8 91q0 52 -17 102t-52.5 89.5t-90.5 64t-131 24.5t-135 -25t-99.5 -68t-62 -100.5
t-21.5 -122.5z" />
    <glyph glyph-name="A" unicode="A" horiz-adv-x="622" 
d="M454 185h-287l-67 -185h-78l251 674h76l251 -674h-78zM193 253h236l-74 200q-11 34 -21.5 67.5t-21.5 67.5h-2q-11 -34 -21.5 -67.5t-21.5 -67.5z" />
    <glyph glyph-name="B" unicode="B" horiz-adv-x="614" 
d="M435 353q25 -3 49 -15t43 -32t30.5 -48t11.5 -64q0 -42 -14.5 -78t-44 -61.5t-74.5 -40t-106 -14.5h-248v674h247q104 0 158 -49t54 -128q0 -29 -10 -53t-25 -42.5t-34 -30.5t-37 -18zM329 68q81 0 123.5 33t42.5 93q0 67 -45.5 94t-121.5 27h-172v-247h173zM330 382
q57 0 96.5 29.5t39.5 88.5q0 53 -37 79.5t-100 26.5h-173v-224h174z" />
    <glyph glyph-name="C" unicode="C" horiz-adv-x="570" 
d="M365 615q-115 0 -179.5 -72t-64.5 -206q0 -132 64 -204.5t179 -72.5q82 0 148 32l19 -64q-36 -18 -76.5 -27.5t-91.5 -9.5q-82 0 -141.5 25t-98.5 70t-58 109t-19 142q0 76 21 140t61.5 109.5t99.5 71t136 25.5q52 0 90 -8.5t71 -23.5l-19 -64q-61 28 -141 28z" />
    <glyph glyph-name="D" unicode="D" horiz-adv-x="649" 
d="M603 338q0 -166 -84 -252t-249 -86h-188v674h188q165 0 249 -85t84 -251zM527 338q0 71 -17 121.5t-49.5 82.5t-80.5 47t-110 15h-112v-534h112q62 0 110 15t80.5 47.5t49.5 83.5t17 122z" />
    <glyph glyph-name="E" unicode="E" horiz-adv-x="545" 
d="M82 674h407v-69h-331v-222h311v-70h-311v-244h337v-69h-413v674z" />
    <glyph glyph-name="F" unicode="F" horiz-adv-x="523" 
d="M82 674h399v-70h-323v-231h303v-70h-303v-303h-76v674z" />
    <glyph glyph-name="G" unicode="G" horiz-adv-x="643" 
d="M376 614q-58 0 -105 -17t-80 -51.5t-51 -87.5t-18 -124q0 -62 15 -112.5t42.5 -86.5t65.5 -56t84 -20q36 0 67 11t54 32.5t36 54t13 75.5v73h-139v67h211v-372h-59l-13 87q-22 -41 -65 -68.5t-110 -27.5q-65 0 -116.5 24.5t-87.5 69.5t-55 108t-19 141q0 83 22.5 148
t64.5 109.5t103 68t138 23.5q54 0 94.5 -10t74.5 -25l-19 -64q-29 14 -67.5 22t-80.5 8z" />
    <glyph glyph-name="H" unicode="H" horiz-adv-x="657" 
d="M499 312h-341v-312h-76v674h76v-291h341v291h76v-674h-76v312z" />
    <glyph glyph-name="I" unicode="I" horiz-adv-x="244" 
d="M160 0h-76v674h76v-674z" />
    <glyph glyph-name="J" unicode="J" horiz-adv-x="380" 
d="M300 192q0 -103 -42.5 -151.5t-127.5 -48.5q-38 0 -67.5 7t-51.5 20l20 64q17 -10 41.5 -16t56.5 -6q44 0 69.5 29.5t25.5 101.5v482h76v-482z" />
    <glyph glyph-name="K" unicode="K" horiz-adv-x="598" 
d="M285 359l301 -359h-93l-283 338v37l275 299h90zM158 0h-76v674h76v-674z" />
    <glyph glyph-name="L" unicode="L" horiz-adv-x="510" 
d="M82 674h76v-604h322v-70h-398v674z" />
    <glyph glyph-name="M" unicode="M" horiz-adv-x="785" 
d="M352 110l-148 325q-14 30 -27 60.5t-26 70.5h-2q6 -46 7 -88t1 -67v-411h-75v674h89l163 -361q7 -16 16 -35.5t17 -38.5t14.5 -36t9.5 -28h3q3 11 9.5 28t14.5 36t16.5 38.5t16.5 35.5l163 361h89v-674h-75v411q0 25 1 67t7 88h-2q-13 -40 -26 -70.5t-27 -60.5l-148 -325
h-81z" />
    <glyph glyph-name="N" unicode="N" horiz-adv-x="663" 
d="M447 218q20 -32 36.5 -62.5t27.5 -52.5h2q-5 34 -6.5 67.5t-1.5 74.5v429h76v-674h-81l-284 456q-20 31 -36.5 62t-27.5 53h-2q5 -34 6.5 -67.5t1.5 -74.5v-429h-76v674h81z" />
    <glyph glyph-name="O" unicode="O" horiz-adv-x="688" 
d="M344 54q56 0 97.5 19.5t69.5 56.5t41.5 89t13.5 118t-13.5 118t-41.5 89t-69.5 56.5t-97.5 19.5t-98 -19.5t-70 -56.5t-41.5 -89t-13.5 -118t13.5 -118t41.5 -89t70 -56.5t98 -19.5zM344 -9q-77 0 -133 26t-93 72.5t-54.5 110t-17.5 137.5t17.5 137.5t54.5 110t93 72.5
t133 26t133 -26t93 -72.5t54.5 -110t17.5 -137.5t-17.5 -137.5t-54.5 -110t-93 -72.5t-133 -26z" />
    <glyph glyph-name="P" unicode="P" horiz-adv-x="560" 
d="M520 466q0 -46 -16 -84.5t-45.5 -67t-71.5 -44.5t-94 -16h-135v-254h-76v674h217q52 0 93.5 -16t69.5 -44t43 -66t15 -82zM444 466q0 64 -37 101t-108 37h-141v-280h135q71 0 111 38t40 104z" />
    <glyph glyph-name="Q" unicode="Q" horiz-adv-x="687" 
d="M211 -88q46 0 74.5 23.5t38.5 56.5q-72 3 -124.5 30t-87 73t-51 108t-16.5 134q0 74 17.5 137.5t54.5 110t93 72.5t133 26t133 -26t93 -72.5t54.5 -110t17.5 -137.5q0 -68 -14.5 -127t-45 -104t-76.5 -74t-109 -37q-8 -26 -25 -49t-41 -34h203v-66h-338v66h16zM343 54
q112 0 167 75.5t55 207.5q0 66 -13.5 118t-41 88.5t-69.5 56t-98 19.5q-113 0 -167.5 -75.5t-54.5 -206.5q0 -132 54.5 -207.5t167.5 -75.5z" />
    <glyph glyph-name="R" unicode="R" horiz-adv-x="587" 
d="M542 474q0 -73 -42.5 -126t-115.5 -71l163 -277h-83l-158 269h-1h-148v-269h-75v674h239q52 0 93.5 -15.5t69.5 -42.5t43 -63.5t15 -78.5zM466 474q0 60 -37 94.5t-108 34.5h-164v-264h158q71 0 111 36t40 99z" />
    <glyph glyph-name="S" unicode="S" horiz-adv-x="528" 
d="M248 -9q-72 0 -116.5 11t-76.5 28l20 62q29 -14 70 -24t94 -10q36 0 66.5 7t52.5 21.5t34.5 37.5t12.5 55t-13 53t-35.5 36t-51.5 25.5t-61 20.5t-65 24t-61 35.5t-45.5 53.5t-17.5 79q0 38 12.5 70.5t39.5 56t69 37t101 13.5q50 0 91 -9.5t74 -26.5l-20 -62
q-29 14 -67 22.5t-78 8.5q-79 0 -114 -30.5t-35 -78.5q0 -29 12 -49t32.5 -34.5t48 -25.5t58.5 -21q36 -12 71.5 -26.5t64 -37t46 -55t17.5 -80.5t-17 -83t-47.5 -58t-73 -34.5t-92.5 -11.5z" />
    <glyph glyph-name="T" unicode="T" horiz-adv-x="512" 
d="M294 604v-604h-76v604l-206 -1v71h488v-71z" />
    <glyph glyph-name="U" unicode="U" horiz-adv-x="664" 
d="M332 -9q-58 0 -104.5 16.5t-79.5 51t-50.5 86.5t-17.5 124v405h76v-406q0 -106 45.5 -156.5t130.5 -50.5t130.5 50.5t45.5 156.5v406h76v-405q0 -72 -17.5 -124t-50.5 -86.5t-79.5 -51t-104.5 -16.5z" />
    <glyph glyph-name="V" unicode="V" horiz-adv-x="612" 
d="M514 674h78l-248 -674h-77l-248 674h78l155 -426q14 -42 26.5 -83.5t25.5 -83.5h2q14 42 26.5 83t25.5 83z" />
    <glyph glyph-name="W" unicode="W" horiz-adv-x="879" 
d="M190 0l-159 674h76l89 -381q13 -55 21.5 -108t13.5 -101h2q8 49 19.5 98.5t28.5 105.5l118 386h79l118 -386q17 -55 29 -105t20 -99h2q4 48 13 101t22 108l88 381h77l-159 -674h-76l-134 438q-11 35 -22 78.5t-17 75.5h-2q-6 -33 -16.5 -76t-21.5 -78l-134 -438h-75z" />
    <glyph glyph-name="X" unicode="X" horiz-adv-x="612" 
d="M306 296h-1l-192 -296h-84l233 350l-215 324h85l174 -270l173 270h85l-215 -324l234 -350h-85z" />
    <glyph glyph-name="Y" unicode="Y" horiz-adv-x="563" 
d="M319 285v-285h-76v285l-227 389h80l184 -324h2l183 324h81z" />
    <glyph glyph-name="Z" unicode="Z" horiz-adv-x="547" 
d="M44 53l357 552h-332v69h426v-54l-356 -551h362v-69h-457v53z" />
    <glyph glyph-name="bracketleft" unicode="[" horiz-adv-x="278" 
d="M82 684h174v-57h-108v-688h108v-57h-174v802z" />
    <glyph glyph-name="backslash" unicode="\" horiz-adv-x="366" 
d="M10 674h61l285 -714h-61z" />
    <glyph glyph-name="bracketright" unicode="]" horiz-adv-x="278" 
d="M196 -118h-174v57h108v688h-108v57h174v-802z" />
    <glyph glyph-name="asciicircum" unicode="^" horiz-adv-x="520" 
d="M478 276h-77l-141 322l-142 -322h-76l185 398h66z" />
    <glyph glyph-name="underscore" unicode="_" horiz-adv-x="427" 
d="M427 -69v-59h-427v59h427z" />
    <glyph glyph-name="grave" unicode="`" horiz-adv-x="295" 
d="M177 576l-23 -32l-163 100l41 56z" />
    <glyph glyph-name="a" unicode="a" horiz-adv-x="503" 
d="M358 241h-105q-69 0 -104 -27.5t-35 -78.5q0 -42 25.5 -64t63.5 -22q35 0 63.5 13t49 34.5t31.5 48t11 53.5v43zM358 318q0 61 -31 87.5t-84 26.5q-45 0 -82.5 -10.5t-68.5 -25.5l-17 53q27 16 71.5 29.5t98.5 13.5q94 0 139 -47t45 -128v-317h-56l-15 85
q-11 -19 -25.5 -36t-34 -30t-45.5 -20.5t-62 -7.5q-31 0 -58 9.5t-47.5 27.5t-32 45t-11.5 62q0 81 56 121.5t156 40.5h104v21z" />
    <glyph glyph-name="b" unicode="b" horiz-adv-x="557" 
d="M152 230q0 -37 11.5 -68.5t31.5 -55t47 -36.5t58 -13q27 0 52 10t44 32.5t30.5 59t11.5 89.5q0 90 -36 133.5t-93 43.5q-49 0 -89 -24.5t-68 -62.5v-108zM78 674h74v-269q10 14 26.5 29.5t38 28t48 21t57.5 8.5q47 0 82.5 -19.5t59 -53t35.5 -78t12 -93.5
q0 -64 -14.5 -112t-41 -80.5t-63.5 -48.5t-81 -16q-55 0 -97 27.5t-62 66.5l-15 -85h-59v674z" />
    <glyph glyph-name="c" unicode="c" horiz-adv-x="457" 
d="M277 432q-41 0 -71.5 -14t-50 -39.5t-29 -60.5t-9.5 -76t9.5 -76t29.5 -60.5t51 -40t74 -14.5q31 0 62.5 7.5t59.5 21.5l17 -55q-31 -16 -65.5 -25t-79.5 -9q-59 0 -102 19t-72 53t-43 80t-14 99t14 99t43 79.5t73 52.5t103 19q41 0 75 -8.5t63 -22.5l-17 -56
q-26 12 -56 19.5t-65 7.5z" />
    <glyph glyph-name="d" unicode="d" horiz-adv-x="556" 
d="M404 340q-26 40 -62 62.5t-77 22.5q-63 0 -105 -45t-42 -138q0 -51 11.5 -86t31 -57t44.5 -32t52 -10q31 0 57.5 13t46.5 36.5t31.5 55t11.5 68.5v110zM478 0h-59l-15 85q-20 -39 -61.5 -66.5t-95.5 -27.5q-44 0 -81 16t-63.5 47.5t-41.5 78t-15 108.5q0 54 14 99.5
t41 79.5t65.5 53t86.5 19q28 0 52 -7.5t43 -20t33 -27.5t23 -30v267h74v-674z" />
    <glyph glyph-name="e" unicode="e" horiz-adv-x="501" 
d="M117 208q6 -75 47.5 -116t119.5 -41q33 0 67 7t61 21l18 -55q-31 -16 -68.5 -24.5t-83.5 -8.5q-59 0 -102.5 18t-72 50.5t-43 79t-14.5 103.5q0 53 13 99t39.5 79.5t68 52.5t98.5 19q94 0 142 -53.5t48 -146.5q0 -24 -3 -45t-8 -39h-327zM265 435q-38 0 -65 -13t-45 -36
t-27 -54.5t-11 -68.5h268q1 2 1 14v15q0 69 -28 106t-93 37z" />
    <glyph glyph-name="f" unicode="f" horiz-adv-x="334" 
d="M251 623q-26 0 -42.5 -7.5t-25.5 -22.5t-12.5 -36t-3.5 -48v-26h142v-60h-142v-423h-72v423h-77v60h77v27q0 79 34 126t117 47q30 0 53 -7t43 -18l-17 -54q-35 19 -74 19z" />
    <glyph glyph-name="g" unicode="g" horiz-adv-x="554" 
d="M404 336q-23 38 -60.5 63.5t-78.5 25.5q-63 0 -105 -44.5t-42 -135.5q0 -49 11.5 -83.5t31 -56t44.5 -31.5t52 -10q33 0 60 13t46.5 36.5t30 55t10.5 68.5v99zM404 92q-20 -39 -61.5 -66.5t-95.5 -27.5q-44 0 -81 16t-63.5 47t-41.5 77.5t-15 106.5q0 52 14 97t41 78.5
t65.5 52.5t86.5 19q28 0 52 -8.5t42.5 -21t33 -28t23.5 -29.5l13 78h61v-447q0 -63 -16 -107.5t-45 -73t-69.5 -42t-89.5 -13.5q-52 0 -99 13.5t-75 30.5l18 60q29 -17 67 -27.5t81 -10.5q34 0 62.5 7.5t48.5 27t31.5 52.5t11.5 84v55z" />
    <glyph glyph-name="h" unicode="h" horiz-adv-x="562" 
d="M152 0h-74v674h74v-266q10 14 27 29t39 27t49 20t57 8q77 0 120.5 -50t43.5 -139v-303h-72v303q0 57 -28 90t-76 33q-51 0 -92.5 -24.5t-67.5 -60.5v-341z" />
    <glyph glyph-name="i" unicode="i" horiz-adv-x="234" 
d="M154 0h-74v483h74v-483zM66 633q0 21 13 36t38 15q26 0 38.5 -15t12.5 -36t-12.5 -35.5t-38.5 -14.5q-25 0 -38 14.5t-13 35.5z" />
    <glyph glyph-name="j" unicode="j" horiz-adv-x="235" 
d="M154 -41q0 -39 -6 -69.5t-21 -50.5t-41 -30.5t-66 -10.5q-22 0 -40 5t-32 12l19 58q25 -11 51 -11q38 0 50 22.5t12 75.5v523h74v-524zM66 633q0 21 13 36t38 15q26 0 39 -15t13 -36t-13 -35.5t-39 -14.5q-25 0 -38 14.5t-13 35.5z" />
    <glyph glyph-name="k" unicode="k" horiz-adv-x="501" 
d="M485 0h-87l-102 128q-19 24 -37.5 47t-33 41t-23.5 29l-9 11v28l192 199h89l-206 -212zM152 0h-74v674h74v-674z" />
    <glyph glyph-name="l" unicode="l" horiz-adv-x="234" 
d="M154 0h-74v674h74v-674z" />
    <glyph glyph-name="m" unicode="m" horiz-adv-x="797" 
d="M150 0h-74v483h61l13 -78q9 15 23.5 30t33.5 28t43 21t53 8q50 0 80.5 -26t42.5 -71q24 39 66 68t94 29q71 0 104 -48t33 -126v-318h-73v318q0 49 -17.5 79t-61.5 30q-22 0 -41.5 -8t-36.5 -21t-31.5 -30.5t-24.5 -36.5v-331h-73v318q0 49 -18 79t-60 30
q-45 0 -80.5 -26.5t-55.5 -62.5v-338z" />
    <glyph glyph-name="n" unicode="n" horiz-adv-x="560" 
d="M150 0h-74v483h60l14 -78q11 14 27.5 29.5t38.5 28t48.5 21t57.5 8.5q77 0 120.5 -50t43.5 -139v-303h-73v303q0 57 -27.5 90t-75.5 33q-51 0 -92.5 -25.5t-67.5 -62.5v-338z" />
    <glyph glyph-name="o" unicode="o" horiz-adv-x="538" 
d="M117 242q0 -41 9 -76.5t27.5 -61t47 -40t68.5 -14.5t68.5 14.5t47 40t27.5 61t9 76.5t-9 75.5t-27.5 60t-47 40t-68.5 14.5t-68.5 -14.5t-47 -40t-27.5 -60t-9 -75.5zM44 242q0 53 13.5 98.5t41 79.5t70 53t100.5 19t100 -19t70 -53t41.5 -79.5t13.5 -98.5t-13.5 -99
t-41.5 -80t-70 -53t-100 -19t-100.5 19t-70 53t-41 80t-13.5 99z" />
    <glyph glyph-name="p" unicode="p" horiz-adv-x="555" 
d="M150 230q0 -37 11.5 -68.5t31.5 -55t47 -36.5t58 -13q27 0 52 10t44 32.5t30.5 59t11.5 89.5q0 90 -36 133.5t-93 43.5q-46 0 -87.5 -24.5t-69.5 -62.5v-108zM137 483l13 -78q10 14 26.5 29.5t38 28t48.5 21t57 8.5q47 0 82.5 -19.5t59 -53t35.5 -78t12 -93.5
q0 -64 -14.5 -112t-41 -80.5t-63.5 -48.5t-81 -16q-55 0 -97 27.5t-62 66.5v-276h-74v674h61z" />
    <glyph glyph-name="q" unicode="q" horiz-adv-x="559" 
d="M405 336q-25 41 -60 65t-79 24q-63 0 -105 -45t-42 -138q0 -51 11.5 -86t31 -57t44.5 -32t52 -10q31 0 57.5 13t46.5 36.5t31.5 55t11.5 68.5v106zM418 483h61v-674h-74v276q-20 -39 -61.5 -66.5t-95.5 -27.5q-44 0 -81 16t-63.5 47.5t-41.5 78t-15 108.5q0 54 14 99.5
t41 79.5t65.5 53t86.5 19q28 0 52 -8t43 -21t33 -28t23 -30z" />
    <glyph glyph-name="r" unicode="r" horiz-adv-x="369" 
d="M150 397q10 17 23.5 34t30.5 30.5t37.5 22t46.5 8.5q30 0 46 -7t19 -9l-21 -73q-21 18 -56 18q-41 0 -73.5 -23t-52.5 -65v-333h-74v483h59z" />
    <glyph glyph-name="s" unicode="s" horiz-adv-x="433" 
d="M198 49q61 0 87 22.5t26 54.5q0 40 -34 60.5t-83 34.5q-32 9 -58.5 21t-46 29t-30 40t-10.5 55q0 61 46.5 93.5t124.5 32.5q42 0 80 -8t67 -22l-17 -57q-27 13 -58 20.5t-66 7.5q-54 0 -80 -18t-26 -48q0 -35 27 -53t72 -32q81 -25 122.5 -59.5t41.5 -97.5
q0 -61 -44 -97.5t-138 -36.5q-46 0 -86 8t-67 23l17 55q26 -12 61 -20t72 -8z" />
    <glyph glyph-name="t" unicode="t" horiz-adv-x="349" 
d="M167 132q0 -40 12 -60.5t50 -20.5q23 0 42.5 6t34.5 14l17 -53q-20 -13 -44 -20t-61 -7q-63 0 -93 33t-30 107v292h-77v60h77l19 138h53v-138h149v-60h-149v-291z" />
    <glyph glyph-name="u" unicode="u" horiz-adv-x="553" 
d="M403 483h74v-483h-59l-15 85q-9 -15 -24.5 -32t-37 -30.5t-49 -22.5t-61.5 -9q-69 0 -113 45t-44 144v303h72v-303q0 -59 26 -91.5t71 -32.5q27 0 51 8t44 21.5t36.5 31.5t28.5 37v329z" />
    <glyph glyph-name="v" unicode="v" horiz-adv-x="462" 
d="M194 0l-176 483h76l88 -246q12 -41 24.5 -80.5t23.5 -80.5h2q11 41 23.5 80.5t24.5 80.5l88 246h76l-176 -483h-74z" />
    <glyph glyph-name="w" unicode="w" horiz-adv-x="677" 
d="M467 192q8 -27 15 -58t12 -65h2q2 35 6 66t11 60l66 288h72l-117 -483h-71l-99 315q-8 26 -13.5 51t-10.5 53h-3q-5 -28 -10.5 -53t-13.5 -51l-99 -315h-71l-117 483h72l66 -288q7 -29 11 -60t6 -66h2q5 34 12 65t15 58l91 291h75z" />
    <glyph glyph-name="x" unicode="x" horiz-adv-x="482" 
d="M240 202l-138 -202h-78l177 252l-162 231h78q46 -68 71 -105.5t36.5 -54.5t13.5 -20l2 -3l124 183h79l-163 -231l178 -252h-78z" />
    <glyph glyph-name="y" unicode="y" horiz-adv-x="550" 
d="M400 95q-9 -16 -24 -32.5t-36 -30.5t-47.5 -23t-58.5 -9q-74 0 -117 45t-43 144v294h72v-294q0 -59 25.5 -91.5t71.5 -32.5q27 0 50.5 8.5t43 22t35.5 31t28 36.5v320h74v-447q0 -120 -56.5 -178.5t-159.5 -58.5q-48 0 -93 13.5t-72 31.5l19 59q28 -17 64 -27.5t78 -10.5
q35 0 62 8.5t46 28.5t28.5 53t9.5 82v58z" />
    <glyph glyph-name="z" unicode="z" horiz-adv-x="449" 
d="M42 43l264 380h-244v60h334v-43l-264 -380h273v-60h-363v43z" />
    <glyph glyph-name="braceleft" unicode="{" horiz-adv-x="310" 
d="M52 308q47 0 63 21t16 59q0 18 -2.5 39t-5 42.5t-5 42.5t-2.5 40q0 67 37 99.5t106 32.5h21v-47h-20q-44 0 -61 -24.5t-17 -70.5q0 -37 7.5 -75.5t7.5 -76.5q0 -42 -16.5 -69t-57.5 -38q41 -12 57.5 -39t16.5 -69q0 -38 -7.5 -76.5t-7.5 -75.5q0 -45 17 -69.5t61 -24.5
h20v-47h-21q-69 0 -106 32.5t-37 98.5q0 19 2.5 40t5 42.5t5 42.5t2.5 39q0 38 -16 59t-63 21v51z" />
    <glyph glyph-name="bar" unicode="|" horiz-adv-x="247" 
d="M157 -200h-67v974h67v-974z" />
    <glyph glyph-name="braceright" unicode="}" horiz-adv-x="310" 
d="M258 257q-47 0 -63.5 -21t-16.5 -59q0 -18 2.5 -39t5 -42.5t5 -42.5t2.5 -40q0 -66 -37 -98.5t-106 -32.5h-20v47h19q44 0 61.5 24.5t17.5 69.5q0 37 -7.5 75.5t-7.5 76.5q0 42 16.5 69t56.5 39q-40 11 -56.5 38t-16.5 69q0 38 7.5 76.5t7.5 75.5q0 46 -17.5 70.5
t-61.5 24.5h-19v47h20q69 0 106 -32.5t37 -99.5q0 -19 -2.5 -40t-5 -42.5t-5 -42.5t-2.5 -39q0 -38 16.5 -59t63.5 -21v-51z" />
    <glyph glyph-name="asciitilde" unicode="~" horiz-adv-x="544" 
d="M466 387q9 -9 17.5 -18.5t18.5 -18.5q-20 -38 -54.5 -66.5t-78.5 -28.5q-36 0 -61 12t-46 26t-40.5 26t-43.5 12q-39 0 -61.5 -20t-38.5 -46q-10 9 -18.5 18t-17.5 19q8 16 21 33t30 30.5t38 22t45 8.5q35 0 59.5 -11.5t45 -26t40.5 -26t46 -11.5q35 0 58.5 20t40.5 46z
" />
    <glyph glyph-name="uni007F" horiz-adv-x="500" 
 />
    <glyph glyph-name="nonbreakingspace" unicode="&#xa0;" 
 />
    <glyph glyph-name="exclamdown" unicode="&#xa1;" horiz-adv-x="248" 
d="M86 -38l11 333h55l11 -333v-153h-77v153zM180 437q0 -23 -14.5 -39t-41.5 -16t-41.5 16t-14.5 39t14.5 39t41.5 16t41.5 -16t14.5 -39z" />
    <glyph glyph-name="cent" unicode="&#xa2;" horiz-adv-x="566" 
d="M305 -7q-52 4 -91.5 24.5t-65.5 53.5t-39.5 77t-13.5 94t13 93.5t39.5 76.5t65.5 53.5t92 25.5v92h50v-91q68 -3 120 -29l-17 -56q-22 11 -48 17t-55 8v-381q27 2 55.5 9t52.5 18l17 -55q-55 -28 -125 -31v-92h-50v93zM168 242q0 -74 33.5 -126t103.5 -63v377
q-69 -9 -103 -61t-34 -127z" />
    <glyph glyph-name="sterling" unicode="&#xa3;" horiz-adv-x="566" 
d="M333 592q-36 0 -60.5 -11t-40 -28.5t-22 -38.5t-6.5 -42q0 -33 11.5 -61t25.5 -55h160v-55h-132q8 -19 13.5 -38.5t5.5 -42.5q0 -48 -25 -85.5t-69 -60.5h325v-74h-449v74h35q25 9 44.5 25t33 34.5t21 39t7.5 40.5q0 24 -7 45.5t-16 42.5h-112v55h82q-15 29 -27 59.5
t-12 67.5q0 40 16.5 72.5t44.5 55.5t65.5 35.5t79.5 12.5q52 0 85.5 -10t65.5 -27l-19 -61q-28 16 -56 23.5t-68 7.5z" />
    <glyph glyph-name="currency" unicode="&#xa4;" horiz-adv-x="571" 
d="M487 164q-9 -10 -18.5 -19.5t-18.5 -20.5l-55 58q-27 -17 -53 -26t-56 -9q-32 0 -58 9t-51 26l-56 -58q-9 10 -18.5 20.5t-18.5 19.5l55 56q-18 24 -27 50t-9 58q0 30 9.5 56.5t26.5 53.5l-40 39q-3 4 -7.5 8t-8.5 9q9 9 18.5 18t18.5 19l57 -57q25 20 52 28.5t56 8.5
q30 0 56.5 -9.5t52.5 -27.5l56 56q9 -9 18 -19t18 -18l-54 -55q18 -26 27 -52.5t9 -57.5q0 -29 -9.5 -57t-26.5 -51zM417 328q0 27 -11 51t-29 41.5t-42 27.5t-50 10q-27 0 -50.5 -10t-41.5 -27.5t-28 -41.5t-10 -51t10 -50.5t28 -41t41.5 -27.5t50.5 -10q26 0 50 10
t42 27.5t29 41t11 50.5z" />
    <glyph glyph-name="yen" unicode="&#xa5;" horiz-adv-x="566" 
d="M88 347h123l-166 303h80l156 -300h2l157 300h81l-167 -303h123v-46h-147q-2 -4 -5 -7.5t-5 -8.5v-62h157v-45h-157v-178h-76v178h-156v45h156v62l-9 16h-147v46z" />
    <glyph glyph-name="brokenbar" unicode="&#xa6;" horiz-adv-x="246" 
d="M91 674h64v-351h-64v351zM91 176h64v-351h-64v351z" />
    <glyph glyph-name="section" unicode="&#xa7;" horiz-adv-x="566" 
d="M273 380q-28 8 -45 14t-33 15q-10 -6 -17 -16q-7 -8 -12 -20.5t-5 -28.5q0 -24 13.5 -40.5t33.5 -28t43 -19t43 -13.5q30 -9 45 -14t31 -13q10 6 19 15q7 8 13 18.5t6 26.5q0 38 -37.5 62.5t-97.5 41.5zM248 -4q29 0 55 5.5t46 16.5t32 26t12 35q0 22 -10.5 37.5
t-27.5 27.5t-39 20.5t-44 15.5q-25 7 -57 18t-60.5 29t-48.5 45t-20 65t18 63t47 36q-23 22 -33 48t-10 55q0 64 51 104t140 40q39 0 76.5 -9t67.5 -23l-17 -56q-26 14 -55 22.5t-64 8.5q-66 0 -96.5 -25t-30.5 -62q0 -20 10 -35t26.5 -26t37.5 -19.5t44 -16.5
q29 -10 61.5 -22t60 -30t45.5 -43.5t18 -61.5q0 -37 -18.5 -61.5t-48.5 -35.5q26 -23 37 -52t11 -57q0 -33 -15.5 -59t-43.5 -44t-66.5 -27.5t-84.5 -9.5q-49 0 -91 9.5t-72 24.5l17 55q29 -14 63 -23t77 -9z" />
    <glyph glyph-name="dieresis" unicode="&#xa8;" horiz-adv-x="295" 
d="M4 614q0 19 12 32.5t35 13.5t35.5 -13.5t12.5 -32.5t-12.5 -32.5t-35.5 -13.5t-35 13.5t-12 32.5zM196 614q0 19 12.5 32.5t35.5 13.5t35 -13.5t12 -32.5t-12 -32.5t-35 -13.5t-35.5 13.5t-12.5 32.5z" />
    <glyph glyph-name="copyright" unicode="&#xa9;" horiz-adv-x="688" 
d="M40 337q0 65 24.5 122t66 99.5t96.5 67t117 24.5t117 -24.5t96.5 -67t66 -99.5t24.5 -122t-24.5 -122t-66 -99.5t-96.5 -67t-117 -24.5t-117 24.5t-96.5 67t-66 99.5t-24.5 122zM602 337q0 56 -19.5 105.5t-54 86.5t-82 58.5t-102.5 21.5t-102.5 -21.5t-82 -58.5
t-54 -86.5t-19.5 -105.5t19.5 -105.5t54 -86.5t82 -58.5t102.5 -21.5t102.5 21.5t82 58.5t54 86.5t19.5 105.5zM358 471q-59 0 -86 -38.5t-27 -96.5t27 -96.5t88 -38.5q44 0 86 20l12 -40q-23 -11 -47 -17t-56 -6q-42 0 -73 14t-51.5 38t-30 56.5t-9.5 69.5t10 69.5
t30.5 56.5t52 38t74.5 14q55 0 98 -22l-13 -40q-40 19 -85 19z" />
    <glyph glyph-name="ordfeminine" unicode="&#xaa;" horiz-adv-x="345" 
d="M241 473h-70q-45 0 -68.5 -19t-23.5 -54q0 -26 16 -41.5t42 -15.5q23 0 42.5 9t33 23.5t21 33t7.5 37.5v27zM241 530q0 40 -22 59t-57 19q-29 0 -56.5 -7t-51.5 -20l-16 47q21 11 54 21.5t74 10.5q69 0 102.5 -35.5t33.5 -95.5v-229h-50l-9 50q-17 -23 -42.5 -40
t-73.5 -17q-47 0 -79.5 27t-32.5 80q0 61 42 90t114 29h70v11z" />
    <glyph glyph-name="guillemotleft" unicode="&#xab;" horiz-adv-x="451" 
d="M277 242l129 -180h-61l-130 180l130 179h61zM102 242l129 -180h-61l-130 180l130 179h61z" />
    <glyph glyph-name="logicalnot" unicode="&#xac;" horiz-adv-x="496" 
d="M379 124v179h-339v63h406v-242h-67z" />
    <glyph glyph-name="uni00AD" unicode="&#xad;" horiz-adv-x="295" 
d="M10 279h275v-60h-275v60z" />
    <glyph glyph-name="registered" unicode="&#xae;" horiz-adv-x="529" 
d="M40 460q0 47 16.5 88t46 71t70.5 47.5t91 17.5t91.5 -17.5t71 -47.5t46 -71t16.5 -88t-16.5 -88t-46 -71.5t-71 -48t-91.5 -17.5t-91 17.5t-70.5 48t-46 71.5t-16.5 88zM450 460q0 39 -13.5 73.5t-38 61t-58.5 41.5t-76 15q-41 0 -75 -15t-58.5 -41.5t-38 -61
t-13.5 -73.5t13.5 -74t38 -61t58.5 -41t75 -15q42 0 76 15t58.5 41t38 61t13.5 74zM367 508q0 -27 -16 -47t-43 -28l60 -101h-41l-58 97h-45v-97h-38v249h93q48 0 68 -21t20 -52zM329 508q0 19 -12 29t-39 10h-54v-83h53q52 0 52 44z" />
    <glyph glyph-name="macron" unicode="&#xaf;" horiz-adv-x="295" 
d="M11 574v52h273v-52h-273z" />
    <glyph glyph-name="degree" unicode="&#xb0;" horiz-adv-x="351" 
d="M82 553q0 -19 7 -36t19.5 -30t29.5 -20.5t37 -7.5q21 0 38.5 7.5t30 20.5t20 30t7.5 36q0 38 -27 64.5t-69 26.5q-40 0 -66.5 -26.5t-26.5 -64.5zM40 553q0 27 10.5 51t28.5 41.5t42.5 28t53.5 10.5t54 -10.5t43 -28t28.5 -41.5t10.5 -51t-10.5 -51t-28.5 -42t-43 -28.5
t-54 -10.5t-53.5 10.5t-42.5 28.5t-28.5 42t-10.5 51z" />
    <glyph glyph-name="plusminus" unicode="&#xb1;" horiz-adv-x="566" 
d="M317 496v-174h178v-60h-178v-174h-67v174h-179v60h179v174h67zM495 50v-50h-424v50h424z" />
    <glyph glyph-name="twosuperior" unicode="&#xb2;" horiz-adv-x="307" 
d="M142 609q-19 0 -42.5 -7t-43.5 -17l-16 47q20 10 47.5 18.5t56.5 8.5q60 0 89 -25.5t29 -70.5q0 -23 -10.5 -45t-26.5 -42.5t-35 -39.5l-35 -35l-48 -48h165v-53h-245v40l91 93q36 36 59.5 67t23.5 63q0 23 -15.5 34.5t-43.5 11.5z" />
    <glyph glyph-name="threesuperior" unicode="&#xb3;" horiz-adv-x="300" 
d="M132 344q37 0 54.5 17.5t17.5 42.5q0 27 -18 41.5t-48 14.5h-54v48h54q24 0 40 13.5t16 42.5q0 20 -15 33t-53 13q-23 0 -43.5 -5.5t-39.5 -15.5l-16 47q21 11 47.5 17t53.5 6q67 0 96.5 -28t29.5 -67q0 -30 -15.5 -49t-38.5 -28q32 -7 48 -30.5t16 -52.5
q0 -50 -33.5 -79.5t-97.5 -29.5q-34 0 -60 7.5t-46 18.5l15 46q19 -10 42.5 -16.5t47.5 -6.5z" />
    <glyph glyph-name="acute" unicode="&#xb4;" horiz-adv-x="295" 
d="M263 700l41 -56l-163 -100l-23 32z" />
    <glyph glyph-name="mu" unicode="&#xb5;" horiz-adv-x="556" 
d="M76 483h73v-306q0 -60 26.5 -91t74.5 -31q26 0 49 8.5t42.5 22t35.5 31t28 36.5v330h75v-483h-60l-15 85q-9 -16 -24.5 -32.5t-35 -30t-44 -22.5t-51.5 -9q-38 0 -62.5 10.5t-38.5 30.5v-232h-73v683z" />
    <glyph glyph-name="paragraph" unicode="&#xb6;" horiz-adv-x="442" 
d="M42 500q0 41 14 73.5t38 55t56.5 34t69.5 11.5h192v-48h-36q-41 0 -55 -16.5t-14 -51.5v-606h-68v377h-29q-32 0 -62 11t-53.5 32.5t-38 53.5t-14.5 74z" />
    <glyph glyph-name="periodcentered" unicode="&#xb7;" horiz-adv-x="236" 
d="M62 279q0 23 14 39t42 16q27 0 41.5 -16t14.5 -39t-14.5 -39t-41.5 -16q-28 0 -42 16t-14 39z" />
    <glyph glyph-name="cedilla" unicode="&#xb8;" horiz-adv-x="295" 
d="M134 -164h-80l80 125h47z" />
    <glyph glyph-name="onesuperior" unicode="&#xb9;" horiz-adv-x="285" 
d="M118 599l-72 -23v49l87 30h45v-303h80v-52h-223v52h83v247z" />
    <glyph glyph-name="ordmasculine" unicode="&#xba;" horiz-adv-x="394" 
d="M94 477q0 -28 6 -52t18.5 -42t32 -28t46.5 -10t46.5 10t32.5 28t19 42t6 52q0 57 -25 93.5t-79 36.5t-78.5 -36.5t-24.5 -93.5zM30 477q0 38 10 71.5t30.5 58t52 38.5t74.5 14t74.5 -14t52 -38.5t30.5 -58t10 -71.5q0 -39 -10 -72t-30.5 -58t-52 -39t-74.5 -14t-74.5 14
t-52 39t-30.5 58t-10 72z" />
    <glyph glyph-name="guillemotright" unicode="&#xbb;" horiz-adv-x="451" 
d="M45 421h61l130 -179l-130 -180h-61l129 180zM220 421h61l130 -179l-130 -180h-61l129 180z" />
    <glyph glyph-name="onequarter" unicode="&#xbc;" horiz-adv-x="760" 
d="M532 660h63l-366 -660h-63zM136 599l-72 -23v49l86 30h46v-303h80v-52h-223v52h83v247zM583 120v141l-104 -141h104zM590 355h49v-235h40v-53h-40v-67h-57v67h-167v43z" />
    <glyph glyph-name="onehalf" unicode="&#xbd;" horiz-adv-x="760" 
d="M532 660h63l-366 -660h-63zM136 599l-72 -23v49l86 30h46v-303h80v-52h-223v52h83v247zM581 309q-19 0 -42.5 -7t-43.5 -17l-16 47q20 10 47.5 18.5t56.5 8.5q60 0 89 -25.5t29 -70.5q0 -23 -10.5 -45t-26.5 -42.5t-35 -39.5l-35 -35l-48 -48h165v-53h-245v40l91 93
q36 36 59.5 67t23.5 63q0 23 -15.5 34.5t-43.5 11.5z" />
    <glyph glyph-name="threequarters" unicode="&#xbe;" horiz-adv-x="760" 
d="M532 660h63l-366 -660h-63zM583 120v141l-104 -141h104zM590 355h49v-235h40v-53h-40v-67h-57v67h-167v43zM148 344q38 0 55.5 17.5t17.5 42.5q0 27 -18 41.5t-49 14.5h-53v48h53q25 0 41 13.5t16 42.5q0 20 -15 33t-53 13q-23 0 -43.5 -5.5t-39.5 -15.5l-16 47
q21 11 47 17t54 6q67 0 96 -28t29 -67q0 -30 -15 -49t-39 -28q33 -7 48.5 -30.5t15.5 -52.5q0 -50 -33.5 -79.5t-96.5 -29.5q-34 0 -60.5 7.5t-46.5 18.5l16 46q18 -10 42 -16.5t47 -6.5z" />
    <glyph glyph-name="questiondown" unicode="&#xbf;" horiz-adv-x="488" 
d="M263 -133q42 0 84 11.5t73 27.5l19 -63q-31 -16 -77 -30t-100 -14q-102 0 -152 45t-50 121q0 38 13 68t33 55t42.5 46.5t42.5 42.5t33 43.5t13 49.5q0 30 -9 53h62q7 -11 10.5 -26t3.5 -30q0 -32 -12.5 -58t-31 -48t-40.5 -42.5t-40.5 -43t-31 -47.5t-12.5 -57
q0 -21 7 -39.5t22.5 -33t39.5 -23t58 -8.5zM315 437q0 -23 -14.5 -39t-41.5 -16t-41.5 16t-14.5 39t14.5 39t41.5 16t41.5 -16t14.5 -39z" />
    <glyph glyph-name="Agrave" unicode="&#xc0;" horiz-adv-x="622" 
d="M454 185h-287l-67 -185h-78l251 674h76l251 -674h-78zM193 253h236l-74 200q-11 34 -21.5 67.5t-21.5 67.5h-2q-11 -34 -21.5 -67.5t-21.5 -67.5zM404 772l-23 -32l-163 100l41 56z" />
    <glyph glyph-name="Aacute" unicode="&#xc1;" horiz-adv-x="622" 
d="M454 185h-287l-67 -185h-78l251 674h76l251 -674h-78zM193 253h236l-74 200q-11 34 -21.5 67.5t-21.5 67.5h-2q-11 -34 -21.5 -67.5t-21.5 -67.5zM363 896l41 -56l-163 -100l-23 32z" />
    <glyph glyph-name="Acircumflex" unicode="&#xc2;" horiz-adv-x="622" 
d="M454 185h-287l-67 -185h-78l251 674h76l251 -674h-78zM193 253h236l-74 200q-11 34 -21.5 67.5t-21.5 67.5h-2q-11 -34 -21.5 -67.5t-21.5 -67.5zM452 742h-70l-72 89l-71 -89h-70l116 140h51z" />
    <glyph glyph-name="Atilde" unicode="&#xc3;" horiz-adv-x="622" 
d="M454 185h-287l-67 -185h-78l251 674h76l251 -674h-78zM193 253h236l-74 200q-11 34 -21.5 67.5t-21.5 67.5h-2q-11 -34 -21.5 -67.5t-21.5 -67.5zM460 853q-1 -48 -23.5 -74t-61.5 -26q-23 0 -39.5 7.5t-30.5 16.5t-27.5 16.5t-28.5 7.5q-20 0 -28 -13.5t-8 -31.5h-52
q1 47 22.5 73t63.5 26q21 0 37.5 -7.5t30.5 -16t28 -16t29 -7.5q20 0 27 12.5t7 32.5h54z" />
    <glyph glyph-name="Adieresis" unicode="&#xc4;" horiz-adv-x="622" 
d="M454 185h-287l-67 -185h-78l251 674h76l251 -674h-78zM193 253h236l-74 200q-11 34 -21.5 67.5t-21.5 67.5h-2q-11 -34 -21.5 -67.5t-21.5 -67.5zM167 810q0 19 12 32.5t35 13.5t35.5 -13.5t12.5 -32.5t-12.5 -32.5t-35.5 -13.5t-35 13.5t-12 32.5zM359 810
q0 19 12.5 32.5t35.5 13.5t35 -13.5t12 -32.5t-12 -32.5t-35 -13.5t-35.5 13.5t-12.5 32.5z" />
    <glyph glyph-name="Aring" unicode="&#xc5;" horiz-adv-x="622" 
d="M454 185h-287l-67 -185h-78l251 674h76l251 -674h-78zM193 253h236l-74 200q-11 34 -21.5 67.5t-21.5 67.5h-2q-11 -34 -21.5 -67.5t-21.5 -67.5zM263 829q0 -23 14 -37t34 -14t34.5 14t14.5 37t-14 37.5t-35 14.5q-20 0 -34 -14.5t-14 -37.5zM219 828q0 19 7 36
t19.5 29.5t29.5 20t36 7.5t36 -7.5t29.5 -20t19.5 -29.5t7 -36t-7 -35.5t-19.5 -29t-29.5 -19.5t-36 -7t-36 7t-29.5 19.5t-19.5 29t-7 35.5z" />
    <glyph glyph-name="AE" unicode="&#xc6;" horiz-adv-x="816" 
d="M464 185h-287q-20 -46 -40 -92.5t-40 -92.5h-77l298 674h442v-70h-345l66 -222h259v-69h-239l72 -244h193v-69h-247zM208 253h237l-61 200l-33 135h-2q-13 -34 -26 -67.5t-27 -67.5z" />
    <glyph glyph-name="Ccedilla" unicode="&#xc7;" horiz-adv-x="570" 
d="M365 615q-115 0 -179.5 -72t-64.5 -206q0 -132 64 -204.5t179 -72.5q82 0 148 32l19 -64q-36 -18 -76.5 -27.5t-91.5 -9.5q-82 0 -141.5 25t-98.5 70t-58 109t-19 142q0 76 21 140t61.5 109.5t99.5 71t136 25.5q52 0 90 -8.5t71 -23.5l-19 -64q-61 28 -141 28zM331 -164
h-80l80 125h47z" />
    <glyph glyph-name="Egrave" unicode="&#xc8;" horiz-adv-x="545" 
d="M82 674h407v-69h-331v-222h311v-70h-311v-244h337v-69h-413v674zM385 772l-23 -32l-163 100l41 56z" />
    <glyph glyph-name="Eacute" unicode="&#xc9;" horiz-adv-x="545" 
d="M82 674h407v-69h-331v-222h311v-70h-311v-244h337v-69h-413v674zM344 896l41 -56l-163 -100l-23 32z" />
    <glyph glyph-name="Ecircumflex" unicode="&#xca;" horiz-adv-x="545" 
d="M82 674h407v-69h-331v-222h311v-70h-311v-244h337v-69h-413v674zM434 742h-70l-72 89l-71 -89h-70l116 140h51z" />
    <glyph glyph-name="Edieresis" unicode="&#xcb;" horiz-adv-x="545" 
d="M82 674h407v-69h-331v-222h311v-70h-311v-244h337v-69h-413v674zM149 810q0 19 12 32.5t35 13.5t35.5 -13.5t12.5 -32.5t-12.5 -32.5t-35.5 -13.5t-35 13.5t-12 32.5zM341 810q0 19 12.5 32.5t35.5 13.5t35 -13.5t12 -32.5t-12 -32.5t-35 -13.5t-35.5 13.5t-12.5 32.5z
" />
    <glyph glyph-name="Igrave" unicode="&#xcc;" horiz-adv-x="244" 
d="M160 0h-76v674h76v-674zM215 772l-23 -32l-163 100l41 56z" />
    <glyph glyph-name="Iacute" unicode="&#xcd;" horiz-adv-x="244" 
d="M160 0h-76v674h76v-674zM175 896l41 -56l-163 -100l-23 32z" />
    <glyph glyph-name="Icircumflex" unicode="&#xce;" horiz-adv-x="244" 
d="M160 0h-76v674h76v-674zM265 742h-70l-72 89l-71 -89h-70l116 140h51z" />
    <glyph glyph-name="Idieresis" unicode="&#xcf;" horiz-adv-x="244" 
d="M160 0h-76v674h76v-674zM-20 810q0 19 12 32.5t35 13.5t35.5 -13.5t12.5 -32.5t-12.5 -32.5t-35.5 -13.5t-35 13.5t-12 32.5zM172 810q0 19 12.5 32.5t35.5 13.5t35 -13.5t12 -32.5t-12 -32.5t-35 -13.5t-35.5 13.5t-12.5 32.5z" />
    <glyph glyph-name="Eth" unicode="&#xd0;" horiz-adv-x="650" 
d="M82 360v314h188q165 0 249 -85t84 -251t-84 -252t-249 -86h-188v301h-69v59h69zM527 338q0 71 -17 121.5t-49.5 82.5t-80.5 47t-110 15h-112v-244h178v-59h-178v-231h112q62 0 110 15t80.5 47.5t49.5 83.5t17 122z" />
    <glyph glyph-name="Ntilde" unicode="&#xd1;" horiz-adv-x="663" 
d="M447 218q20 -32 36.5 -62.5t27.5 -52.5h2q-5 34 -6.5 67.5t-1.5 74.5v429h76v-674h-81l-284 456q-20 31 -36.5 62t-27.5 53h-2q5 -34 6.5 -67.5t1.5 -74.5v-429h-76v674h81zM481 853q-1 -48 -23.5 -74t-61.5 -26q-23 0 -39.5 7.5t-30.5 16.5t-27.5 16.5t-28.5 7.5
q-20 0 -28 -13.5t-8 -31.5h-52q1 47 22.5 73t63.5 26q21 0 37.5 -7.5t30.5 -16t28 -16t29 -7.5q20 0 27 12.5t7 32.5h54z" />
    <glyph glyph-name="Ograve" unicode="&#xd2;" horiz-adv-x="688" 
d="M344 54q56 0 97.5 19.5t69.5 56.5t41.5 89t13.5 118t-13.5 118t-41.5 89t-69.5 56.5t-97.5 19.5t-98 -19.5t-70 -56.5t-41.5 -89t-13.5 -118t13.5 -118t41.5 -89t70 -56.5t98 -19.5zM344 -9q-77 0 -133 26t-93 72.5t-54.5 110t-17.5 137.5t17.5 137.5t54.5 110t93 72.5
t133 26t133 -26t93 -72.5t54.5 -110t17.5 -137.5t-17.5 -137.5t-54.5 -110t-93 -72.5t-133 -26zM437 772l-23 -32l-163 100l41 56z" />
    <glyph glyph-name="Oacute" unicode="&#xd3;" horiz-adv-x="688" 
d="M344 54q56 0 97.5 19.5t69.5 56.5t41.5 89t13.5 118t-13.5 118t-41.5 89t-69.5 56.5t-97.5 19.5t-98 -19.5t-70 -56.5t-41.5 -89t-13.5 -118t13.5 -118t41.5 -89t70 -56.5t98 -19.5zM344 -9q-77 0 -133 26t-93 72.5t-54.5 110t-17.5 137.5t17.5 137.5t54.5 110t93 72.5
t133 26t133 -26t93 -72.5t54.5 -110t17.5 -137.5t-17.5 -137.5t-54.5 -110t-93 -72.5t-133 -26zM396 896l41 -56l-163 -100l-23 32z" />
    <glyph glyph-name="Ocircumflex" unicode="&#xd4;" horiz-adv-x="688" 
d="M344 54q56 0 97.5 19.5t69.5 56.5t41.5 89t13.5 118t-13.5 118t-41.5 89t-69.5 56.5t-97.5 19.5t-98 -19.5t-70 -56.5t-41.5 -89t-13.5 -118t13.5 -118t41.5 -89t70 -56.5t98 -19.5zM344 -9q-77 0 -133 26t-93 72.5t-54.5 110t-17.5 137.5t17.5 137.5t54.5 110t93 72.5
t133 26t133 -26t93 -72.5t54.5 -110t17.5 -137.5t-17.5 -137.5t-54.5 -110t-93 -72.5t-133 -26zM485 742h-70l-72 89l-71 -89h-70l116 140h51z" />
    <glyph glyph-name="Otilde" unicode="&#xd5;" horiz-adv-x="688" 
d="M344 54q56 0 97.5 19.5t69.5 56.5t41.5 89t13.5 118t-13.5 118t-41.5 89t-69.5 56.5t-97.5 19.5t-98 -19.5t-70 -56.5t-41.5 -89t-13.5 -118t13.5 -118t41.5 -89t70 -56.5t98 -19.5zM344 -9q-77 0 -133 26t-93 72.5t-54.5 110t-17.5 137.5t17.5 137.5t54.5 110t93 72.5
t133 26t133 -26t93 -72.5t54.5 -110t17.5 -137.5t-17.5 -137.5t-54.5 -110t-93 -72.5t-133 -26zM493 853q-1 -48 -23.5 -74t-61.5 -26q-23 0 -39.5 7.5t-30.5 16.5t-27.5 16.5t-28.5 7.5q-20 0 -28 -13.5t-8 -31.5h-52q1 47 22.5 73t63.5 26q21 0 37.5 -7.5t30.5 -16t28 -16
t29 -7.5q20 0 27 12.5t7 32.5h54z" />
    <glyph glyph-name="Odieresis" unicode="&#xd6;" horiz-adv-x="688" 
d="M344 54q56 0 97.5 19.5t69.5 56.5t41.5 89t13.5 118t-13.5 118t-41.5 89t-69.5 56.5t-97.5 19.5t-98 -19.5t-70 -56.5t-41.5 -89t-13.5 -118t13.5 -118t41.5 -89t70 -56.5t98 -19.5zM344 -9q-77 0 -133 26t-93 72.5t-54.5 110t-17.5 137.5t17.5 137.5t54.5 110t93 72.5
t133 26t133 -26t93 -72.5t54.5 -110t17.5 -137.5t-17.5 -137.5t-54.5 -110t-93 -72.5t-133 -26zM200 810q0 19 12 32.5t35 13.5t35.5 -13.5t12.5 -32.5t-12.5 -32.5t-35.5 -13.5t-35 13.5t-12 32.5zM392 810q0 19 12.5 32.5t35.5 13.5t35 -13.5t12 -32.5t-12 -32.5
t-35 -13.5t-35.5 13.5t-12.5 32.5z" />
    <glyph glyph-name="multiply" unicode="&#xd7;" horiz-adv-x="566" 
d="M428 88l-149 148l-148 -148l-47 47l148 148l-149 149l48 47l148 -148l149 148l47 -47l-149 -149l149 -148z" />
    <glyph glyph-name="Oslash" unicode="&#xd8;" horiz-adv-x="688" 
d="M543 614q51 -48 75 -118.5t24 -158.5q0 -74 -17.5 -137.5t-54.5 -110t-93 -72.5t-133 -26q-48 0 -87 10t-71 29l-43 -70h-59l61 99q-51 48 -75 119t-24 159q0 74 17.5 137.5t54.5 110t93 72.5t133 26q92 0 157 -40l44 71h59zM121 337q0 -70 15 -124.5t47 -91.5l283 465
q-24 16 -54.5 25t-67.5 9q-56 0 -98 -19.5t-70 -56.5t-41.5 -89t-13.5 -118zM344 54q56 0 97.5 19.5t69.5 56.5t41.5 89t13.5 118q0 140 -62 214l-283 -463q49 -34 123 -34z" />
    <glyph glyph-name="Ugrave" unicode="&#xd9;" horiz-adv-x="664" 
d="M332 -9q-58 0 -104.5 16.5t-79.5 51t-50.5 86.5t-17.5 124v405h76v-406q0 -106 45.5 -156.5t130.5 -50.5t130.5 50.5t45.5 156.5v406h76v-405q0 -72 -17.5 -124t-50.5 -86.5t-79.5 -51t-104.5 -16.5zM425 772l-23 -32l-163 100l41 56z" />
    <glyph glyph-name="Uacute" unicode="&#xda;" horiz-adv-x="664" 
d="M332 -9q-58 0 -104.5 16.5t-79.5 51t-50.5 86.5t-17.5 124v405h76v-406q0 -106 45.5 -156.5t130.5 -50.5t130.5 50.5t45.5 156.5v406h76v-405q0 -72 -17.5 -124t-50.5 -86.5t-79.5 -51t-104.5 -16.5zM384 896l41 -56l-163 -100l-23 32z" />
    <glyph glyph-name="Ucircumflex" unicode="&#xdb;" horiz-adv-x="664" 
d="M332 -9q-58 0 -104.5 16.5t-79.5 51t-50.5 86.5t-17.5 124v405h76v-406q0 -106 45.5 -156.5t130.5 -50.5t130.5 50.5t45.5 156.5v406h76v-405q0 -72 -17.5 -124t-50.5 -86.5t-79.5 -51t-104.5 -16.5zM473 742h-70l-72 89l-71 -89h-70l116 140h51z" />
    <glyph glyph-name="Udieresis" unicode="&#xdc;" horiz-adv-x="664" 
d="M332 -9q-58 0 -104.5 16.5t-79.5 51t-50.5 86.5t-17.5 124v405h76v-406q0 -106 45.5 -156.5t130.5 -50.5t130.5 50.5t45.5 156.5v406h76v-405q0 -72 -17.5 -124t-50.5 -86.5t-79.5 -51t-104.5 -16.5zM188 810q0 19 12 32.5t35 13.5t35.5 -13.5t12.5 -32.5t-12.5 -32.5
t-35.5 -13.5t-35 13.5t-12 32.5zM380 810q0 19 12.5 32.5t35.5 13.5t35 -13.5t12 -32.5t-12 -32.5t-35 -13.5t-35.5 13.5t-12.5 32.5z" />
    <glyph glyph-name="Yacute" unicode="&#xdd;" horiz-adv-x="563" 
d="M319 285v-285h-76v285l-227 389h80l184 -324h2l183 324h81zM333 896l41 -56l-163 -100l-23 32z" />
    <glyph glyph-name="Thorn" unicode="&#xde;" horiz-adv-x="564" 
d="M520 344q0 -46 -16 -84t-45.5 -65.5t-71.5 -42.5t-94 -15h-135v-137h-76v674h76v-127h141q52 0 93.5 -15t69.5 -42t43 -64.5t15 -81.5zM444 344q0 64 -37 98.5t-108 34.5h-141v-270h135q71 0 111 35.5t40 101.5z" />
    <glyph glyph-name="germandbls" unicode="&#xdf;" horiz-adv-x="597" 
d="M345 49q58 0 94 37.5t36 106.5q0 83 -44 122t-119 39h-52v61h68q50 0 83 22t33 69q0 30 -11 51t-29 34.5t-40.5 20t-45.5 6.5q-88 0 -129 -50.5t-41 -138.5v-429h-73v429q0 55 15 101.5t45 80.5t75.5 53t106.5 19q43 0 80 -12t63 -34t41 -53t15 -69q0 -27 -10 -49.5
t-26 -39t-36.5 -27t-41.5 -15.5q28 -5 55 -17.5t47 -35t32.5 -56.5t12.5 -83q0 -50 -15.5 -87.5t-42.5 -63t-63.5 -38t-78.5 -12.5q-87 0 -143 28l16 57q27 -13 58 -20t65 -7z" />
    <glyph glyph-name="agrave" unicode="&#xe0;" horiz-adv-x="503" 
d="M358 241h-105q-69 0 -104 -27.5t-35 -78.5q0 -42 25.5 -64t63.5 -22q35 0 63.5 13t49 34.5t31.5 48t11 53.5v43zM358 318q0 61 -31 87.5t-84 26.5q-45 0 -82.5 -10.5t-68.5 -25.5l-17 53q27 16 71.5 29.5t98.5 13.5q94 0 139 -47t45 -128v-317h-56l-15 85
q-11 -19 -25.5 -36t-34 -30t-45.5 -20.5t-62 -7.5q-31 0 -58 9.5t-47.5 27.5t-32 45t-11.5 62q0 81 56 121.5t156 40.5h104v21zM344 576l-23 -32l-163 100l41 56z" />
    <glyph glyph-name="aacute" unicode="&#xe1;" horiz-adv-x="503" 
d="M358 241h-105q-69 0 -104 -27.5t-35 -78.5q0 -42 25.5 -64t63.5 -22q35 0 63.5 13t49 34.5t31.5 48t11 53.5v43zM358 318q0 61 -31 87.5t-84 26.5q-45 0 -82.5 -10.5t-68.5 -25.5l-17 53q27 16 71.5 29.5t98.5 13.5q94 0 139 -47t45 -128v-317h-56l-15 85
q-11 -19 -25.5 -36t-34 -30t-45.5 -20.5t-62 -7.5q-31 0 -58 9.5t-47.5 27.5t-32 45t-11.5 62q0 81 56 121.5t156 40.5h104v21zM303 700l41 -56l-163 -100l-23 32z" />
    <glyph glyph-name="acircumflex" unicode="&#xe2;" horiz-adv-x="503" 
d="M358 241h-105q-69 0 -104 -27.5t-35 -78.5q0 -42 25.5 -64t63.5 -22q35 0 63.5 13t49 34.5t31.5 48t11 53.5v43zM358 318q0 61 -31 87.5t-84 26.5q-45 0 -82.5 -10.5t-68.5 -25.5l-17 53q27 16 71.5 29.5t98.5 13.5q94 0 139 -47t45 -128v-317h-56l-15 85
q-11 -19 -25.5 -36t-34 -30t-45.5 -20.5t-62 -7.5q-31 0 -58 9.5t-47.5 27.5t-32 45t-11.5 62q0 81 56 121.5t156 40.5h104v21zM393 546h-70l-72 89l-71 -89h-70l116 140h51z" />
    <glyph glyph-name="atilde" unicode="&#xe3;" horiz-adv-x="503" 
d="M358 241h-105q-69 0 -104 -27.5t-35 -78.5q0 -42 25.5 -64t63.5 -22q35 0 63.5 13t49 34.5t31.5 48t11 53.5v43zM358 318q0 61 -31 87.5t-84 26.5q-45 0 -82.5 -10.5t-68.5 -25.5l-17 53q27 16 71.5 29.5t98.5 13.5q94 0 139 -47t45 -128v-317h-56l-15 85
q-11 -19 -25.5 -36t-34 -30t-45.5 -20.5t-62 -7.5q-31 0 -58 9.5t-47.5 27.5t-32 45t-11.5 62q0 81 56 121.5t156 40.5h104v21zM401 657q-1 -48 -23.5 -74t-61.5 -26q-23 0 -39.5 7.5t-30.5 16.5t-27.5 16.5t-28.5 7.5q-20 0 -28 -13.5t-8 -31.5h-52q1 47 22.5 73t63.5 26
q21 0 37.5 -7.5t30.5 -16t28 -16t29 -7.5q20 0 27 12.5t7 32.5h54z" />
    <glyph glyph-name="adieresis" unicode="&#xe4;" horiz-adv-x="503" 
d="M358 241h-105q-69 0 -104 -27.5t-35 -78.5q0 -42 25.5 -64t63.5 -22q35 0 63.5 13t49 34.5t31.5 48t11 53.5v43zM358 318q0 61 -31 87.5t-84 26.5q-45 0 -82.5 -10.5t-68.5 -25.5l-17 53q27 16 71.5 29.5t98.5 13.5q94 0 139 -47t45 -128v-317h-56l-15 85
q-11 -19 -25.5 -36t-34 -30t-45.5 -20.5t-62 -7.5q-31 0 -58 9.5t-47.5 27.5t-32 45t-11.5 62q0 81 56 121.5t156 40.5h104v21zM108 614q0 19 12 32.5t35 13.5t35.5 -13.5t12.5 -32.5t-12.5 -32.5t-35.5 -13.5t-35 13.5t-12 32.5zM300 614q0 19 12.5 32.5t35.5 13.5
t35 -13.5t12 -32.5t-12 -32.5t-35 -13.5t-35.5 13.5t-12.5 32.5z" />
    <glyph glyph-name="aring" unicode="&#xe5;" horiz-adv-x="503" 
d="M358 241h-105q-69 0 -104 -27.5t-35 -78.5q0 -42 25.5 -64t63.5 -22q35 0 63.5 13t49 34.5t31.5 48t11 53.5v43zM358 318q0 61 -31 87.5t-84 26.5q-45 0 -82.5 -10.5t-68.5 -25.5l-17 53q27 16 71.5 29.5t98.5 13.5q94 0 139 -47t45 -128v-317h-56l-15 85
q-11 -19 -25.5 -36t-34 -30t-45.5 -20.5t-62 -7.5q-31 0 -58 9.5t-47.5 27.5t-32 45t-11.5 62q0 81 56 121.5t156 40.5h104v21zM203 633q0 -23 14 -37t34 -14t34.5 14t14.5 37t-14 37.5t-35 14.5q-20 0 -34 -14.5t-14 -37.5zM159 632q0 19 7 36t19.5 29.5t29.5 20t36 7.5
t36 -7.5t29.5 -20t19.5 -29.5t7 -36t-7 -35.5t-19.5 -29t-29.5 -19.5t-36 -7t-36 7t-29.5 19.5t-19.5 29t-7 35.5z" />
    <glyph glyph-name="ae" unicode="&#xe6;" horiz-adv-x="796" 
d="M426 208q7 -75 44.5 -116t115.5 -41q63 0 121 28l17 -55q-31 -16 -65 -24.5t-80 -8.5q-79 0 -121.5 31.5t-64.5 88.5q-12 -25 -31 -46.5t-44 -38t-57 -26t-71 -9.5q-31 0 -58 9.5t-47.5 27.5t-32 45t-11.5 62q0 81 56 121.5t156 40.5h104v21q0 61 -31 87.5t-84 26.5
q-45 0 -82.5 -9.5t-68.5 -24.5l-17 53q27 16 71.5 28.5t98.5 12.5q62 0 99 -21.5t57 -60.5q23 38 65 60t101 22q92 0 137.5 -53.5t45.5 -146.5q0 -24 -2.5 -45t-7.5 -39h-313zM357 241h-105q-69 0 -104 -27.5t-35 -78.5q0 -42 25.5 -64t63.5 -22q35 0 63.5 12.5t49 33
t31.5 47.5t11 56v43zM566 435q-38 0 -63.5 -13t-41.5 -36t-24 -54.5t-10 -68.5h254q0 2 0.5 14t0.5 15q0 69 -26 106t-90 37z" />
    <glyph glyph-name="ccedilla" unicode="&#xe7;" horiz-adv-x="457" 
d="M277 432q-41 0 -71.5 -14t-50 -39.5t-29 -60.5t-9.5 -76t9.5 -76t29.5 -60.5t51 -40t74 -14.5q31 0 62.5 7.5t59.5 21.5l17 -55q-31 -16 -65.5 -25t-79.5 -9q-59 0 -102 19t-72 53t-43 80t-14 99t14 99t43 79.5t73 52.5t103 19q41 0 75 -8.5t63 -22.5l-17 -56
q-26 12 -56 19.5t-65 7.5zM245 -164h-80l80 125h47z" />
    <glyph glyph-name="egrave" unicode="&#xe8;" horiz-adv-x="501" 
d="M117 208q6 -75 47.5 -116t119.5 -41q33 0 67 7t61 21l18 -55q-31 -16 -68.5 -24.5t-83.5 -8.5q-59 0 -102.5 18t-72 50.5t-43 79t-14.5 103.5q0 53 13 99t39.5 79.5t68 52.5t98.5 19q94 0 142 -53.5t48 -146.5q0 -24 -3 -45t-8 -39h-327zM265 435q-38 0 -65 -13t-45 -36
t-27 -54.5t-11 -68.5h268q1 2 1 14v15q0 69 -28 106t-93 37zM343 576l-23 -32l-163 100l41 56z" />
    <glyph glyph-name="eacute" unicode="&#xe9;" horiz-adv-x="501" 
d="M117 208q6 -75 47.5 -116t119.5 -41q33 0 67 7t61 21l18 -55q-31 -16 -68.5 -24.5t-83.5 -8.5q-59 0 -102.5 18t-72 50.5t-43 79t-14.5 103.5q0 53 13 99t39.5 79.5t68 52.5t98.5 19q94 0 142 -53.5t48 -146.5q0 -24 -3 -45t-8 -39h-327zM265 435q-38 0 -65 -13t-45 -36
t-27 -54.5t-11 -68.5h268q1 2 1 14v15q0 69 -28 106t-93 37zM302 700l41 -56l-163 -100l-23 32z" />
    <glyph glyph-name="ecircumflex" unicode="&#xea;" horiz-adv-x="501" 
d="M117 208q6 -75 47.5 -116t119.5 -41q33 0 67 7t61 21l18 -55q-31 -16 -68.5 -24.5t-83.5 -8.5q-59 0 -102.5 18t-72 50.5t-43 79t-14.5 103.5q0 53 13 99t39.5 79.5t68 52.5t98.5 19q94 0 142 -53.5t48 -146.5q0 -24 -3 -45t-8 -39h-327zM265 435q-38 0 -65 -13t-45 -36
t-27 -54.5t-11 -68.5h268q1 2 1 14v15q0 69 -28 106t-93 37zM392 546h-70l-72 89l-71 -89h-70l116 140h51z" />
    <glyph glyph-name="edieresis" unicode="&#xeb;" horiz-adv-x="501" 
d="M117 208q6 -75 47.5 -116t119.5 -41q33 0 67 7t61 21l18 -55q-31 -16 -68.5 -24.5t-83.5 -8.5q-59 0 -102.5 18t-72 50.5t-43 79t-14.5 103.5q0 53 13 99t39.5 79.5t68 52.5t98.5 19q94 0 142 -53.5t48 -146.5q0 -24 -3 -45t-8 -39h-327zM265 435q-38 0 -65 -13t-45 -36
t-27 -54.5t-11 -68.5h268q1 2 1 14v15q0 69 -28 106t-93 37zM107 614q0 19 12 32.5t35 13.5t35.5 -13.5t12.5 -32.5t-12.5 -32.5t-35.5 -13.5t-35 13.5t-12 32.5zM299 614q0 19 12.5 32.5t35.5 13.5t35 -13.5t12 -32.5t-12 -32.5t-35 -13.5t-35.5 13.5t-12.5 32.5z" />
    <glyph glyph-name="igrave" unicode="&#xec;" horiz-adv-x="234" 
d="M154 0h-74v483h74v-483zM210 576l-23 -32l-163 100l41 56z" />
    <glyph glyph-name="iacute" unicode="&#xed;" horiz-adv-x="234" 
d="M154 0h-74v483h74v-483zM170 700l41 -56l-163 -100l-23 32z" />
    <glyph glyph-name="icircumflex" unicode="&#xee;" horiz-adv-x="234" 
d="M154 0h-74v483h74v-483zM260 546h-70l-72 89l-71 -89h-70l116 140h51z" />
    <glyph glyph-name="idieresis" unicode="&#xef;" horiz-adv-x="234" 
d="M154 0h-74v483h74v-483zM-25 614q0 19 12 32.5t35 13.5t35.5 -13.5t12.5 -32.5t-12.5 -32.5t-35.5 -13.5t-35 13.5t-12 32.5zM167 614q0 19 12.5 32.5t35.5 13.5t35 -13.5t12 -32.5t-12 -32.5t-35 -13.5t-35.5 13.5t-12.5 32.5z" />
    <glyph glyph-name="eth" unicode="&#xf0;" horiz-adv-x="550" 
d="M187 522l-17 39l94 44q-25 18 -52.5 32t-56.5 24l24 47q76 -25 142 -76l111 53l20 -38l-95 -45q66 -63 106.5 -151t40.5 -199q0 -54 -15.5 -102t-45.5 -83t-73.5 -55.5t-98.5 -20.5q-53 0 -95.5 19.5t-72 53t-45.5 78t-16 94.5q0 52 16 98.5t45.5 81.5t71 55.5t91.5 20.5
q47 0 81 -15t60 -42h3q-13 37 -41 73t-66 68zM432 242q0 38 -9 72.5t-28.5 61t-49.5 42.5t-72 16q-39 0 -69 -15.5t-49.5 -42.5t-29.5 -62.5t-10 -75.5q0 -39 10.5 -73t30.5 -59.5t49 -40t66 -14.5q39 0 69.5 17.5t50.5 45.5t30.5 62t10.5 66z" />
    <glyph glyph-name="ntilde" unicode="&#xf1;" horiz-adv-x="560" 
d="M150 0h-74v483h60l14 -78q11 14 27.5 29.5t38.5 28t48.5 21t57.5 8.5q77 0 120.5 -50t43.5 -139v-303h-73v303q0 57 -27.5 90t-75.5 33q-51 0 -92.5 -25.5t-67.5 -62.5v-338zM429 657q-1 -48 -23.5 -74t-61.5 -26q-23 0 -39.5 7.5t-30.5 16.5t-27.5 16.5t-28.5 7.5
q-20 0 -28 -13.5t-8 -31.5h-52q1 47 22.5 73t63.5 26q21 0 37.5 -7.5t30.5 -16t28 -16t29 -7.5q20 0 27 12.5t7 32.5h54z" />
    <glyph glyph-name="ograve" unicode="&#xf2;" horiz-adv-x="538" 
d="M117 242q0 -41 9 -76.5t27.5 -61t47 -40t68.5 -14.5t68.5 14.5t47 40t27.5 61t9 76.5t-9 75.5t-27.5 60t-47 40t-68.5 14.5t-68.5 -14.5t-47 -40t-27.5 -60t-9 -75.5zM44 242q0 53 13.5 98.5t41 79.5t70 53t100.5 19t100 -19t70 -53t41.5 -79.5t13.5 -98.5t-13.5 -99
t-41.5 -80t-70 -53t-100 -19t-100.5 19t-70 53t-41 80t-13.5 99zM362 576l-23 -32l-163 100l41 56z" />
    <glyph glyph-name="oacute" unicode="&#xf3;" horiz-adv-x="538" 
d="M117 242q0 -41 9 -76.5t27.5 -61t47 -40t68.5 -14.5t68.5 14.5t47 40t27.5 61t9 76.5t-9 75.5t-27.5 60t-47 40t-68.5 14.5t-68.5 -14.5t-47 -40t-27.5 -60t-9 -75.5zM44 242q0 53 13.5 98.5t41 79.5t70 53t100.5 19t100 -19t70 -53t41.5 -79.5t13.5 -98.5t-13.5 -99
t-41.5 -80t-70 -53t-100 -19t-100.5 19t-70 53t-41 80t-13.5 99zM321 700l41 -56l-163 -100l-23 32z" />
    <glyph glyph-name="ocircumflex" unicode="&#xf4;" horiz-adv-x="538" 
d="M117 242q0 -41 9 -76.5t27.5 -61t47 -40t68.5 -14.5t68.5 14.5t47 40t27.5 61t9 76.5t-9 75.5t-27.5 60t-47 40t-68.5 14.5t-68.5 -14.5t-47 -40t-27.5 -60t-9 -75.5zM44 242q0 53 13.5 98.5t41 79.5t70 53t100.5 19t100 -19t70 -53t41.5 -79.5t13.5 -98.5t-13.5 -99
t-41.5 -80t-70 -53t-100 -19t-100.5 19t-70 53t-41 80t-13.5 99zM410 546h-70l-72 89l-71 -89h-70l116 140h51z" />
    <glyph glyph-name="otilde" unicode="&#xf5;" horiz-adv-x="538" 
d="M117 242q0 -41 9 -76.5t27.5 -61t47 -40t68.5 -14.5t68.5 14.5t47 40t27.5 61t9 76.5t-9 75.5t-27.5 60t-47 40t-68.5 14.5t-68.5 -14.5t-47 -40t-27.5 -60t-9 -75.5zM44 242q0 53 13.5 98.5t41 79.5t70 53t100.5 19t100 -19t70 -53t41.5 -79.5t13.5 -98.5t-13.5 -99
t-41.5 -80t-70 -53t-100 -19t-100.5 19t-70 53t-41 80t-13.5 99zM418 657q-1 -48 -23.5 -74t-61.5 -26q-23 0 -39.5 7.5t-30.5 16.5t-27.5 16.5t-28.5 7.5q-20 0 -28 -13.5t-8 -31.5h-52q1 47 22.5 73t63.5 26q21 0 37.5 -7.5t30.5 -16t28 -16t29 -7.5q20 0 27 12.5t7 32.5
h54z" />
    <glyph glyph-name="odieresis" unicode="&#xf6;" horiz-adv-x="538" 
d="M117 242q0 -41 9 -76.5t27.5 -61t47 -40t68.5 -14.5t68.5 14.5t47 40t27.5 61t9 76.5t-9 75.5t-27.5 60t-47 40t-68.5 14.5t-68.5 -14.5t-47 -40t-27.5 -60t-9 -75.5zM44 242q0 53 13.5 98.5t41 79.5t70 53t100.5 19t100 -19t70 -53t41.5 -79.5t13.5 -98.5t-13.5 -99
t-41.5 -80t-70 -53t-100 -19t-100.5 19t-70 53t-41 80t-13.5 99zM125 614q0 19 12 32.5t35 13.5t35.5 -13.5t12.5 -32.5t-12.5 -32.5t-35.5 -13.5t-35 13.5t-12 32.5zM317 614q0 19 12.5 32.5t35.5 13.5t35 -13.5t12 -32.5t-12 -32.5t-35 -13.5t-35.5 13.5t-12.5 32.5z" />
    <glyph glyph-name="divide" unicode="&#xf7;" horiz-adv-x="565" 
d="M487 314v-61h-416v61h416zM218 132q0 23 15 40t43 17q29 0 44 -17t15 -40t-15 -40t-44 -17q-28 0 -43 17t-15 40zM218 435q0 24 15 41t43 17q29 0 44 -17t15 -41q0 -23 -15 -40t-44 -17q-28 0 -43 17t-15 40z" />
    <glyph glyph-name="oslash" unicode="&#xf8;" horiz-adv-x="538" 
d="M405 453q45 -34 67 -89t22 -122q0 -53 -13.5 -99t-41.5 -80t-70 -53t-100 -19q-31 0 -57 5.5t-49 15.5l-28 -52h-52l42 76q-42 35 -61.5 87.5t-19.5 118.5q0 53 13.5 98.5t41 79.5t70 53t100.5 19q54 0 96 -18l38 70h52zM421 242q0 48 -12 86t-37 64l-178 -324
q16 -8 34.5 -13t40.5 -5q40 0 68.5 14.5t47 40t27.5 61t9 76.5zM117 242q0 -45 10 -81.5t32 -62.5l175 320q-28 14 -65 14q-40 0 -68.5 -14.5t-47 -40t-27.5 -60t-9 -75.5z" />
    <glyph glyph-name="ugrave" unicode="&#xf9;" horiz-adv-x="553" 
d="M403 483h74v-483h-59l-15 85q-9 -15 -24.5 -32t-37 -30.5t-49 -22.5t-61.5 -9q-69 0 -113 45t-44 144v303h72v-303q0 -59 26 -91.5t71 -32.5q27 0 51 8t44 21.5t36.5 31.5t28.5 37v329zM369 576l-23 -32l-163 100l41 56z" />
    <glyph glyph-name="uacute" unicode="&#xfa;" horiz-adv-x="553" 
d="M403 483h74v-483h-59l-15 85q-9 -15 -24.5 -32t-37 -30.5t-49 -22.5t-61.5 -9q-69 0 -113 45t-44 144v303h72v-303q0 -59 26 -91.5t71 -32.5q27 0 51 8t44 21.5t36.5 31.5t28.5 37v329zM328 700l41 -56l-163 -100l-23 32z" />
    <glyph glyph-name="ucircumflex" unicode="&#xfb;" horiz-adv-x="553" 
d="M403 483h74v-483h-59l-15 85q-9 -15 -24.5 -32t-37 -30.5t-49 -22.5t-61.5 -9q-69 0 -113 45t-44 144v303h72v-303q0 -59 26 -91.5t71 -32.5q27 0 51 8t44 21.5t36.5 31.5t28.5 37v329zM418 546h-70l-72 89l-71 -89h-70l116 140h51z" />
    <glyph glyph-name="udieresis" unicode="&#xfc;" horiz-adv-x="553" 
d="M403 483h74v-483h-59l-15 85q-9 -15 -24.5 -32t-37 -30.5t-49 -22.5t-61.5 -9q-69 0 -113 45t-44 144v303h72v-303q0 -59 26 -91.5t71 -32.5q27 0 51 8t44 21.5t36.5 31.5t28.5 37v329zM133 614q0 19 12 32.5t35 13.5t35.5 -13.5t12.5 -32.5t-12.5 -32.5t-35.5 -13.5
t-35 13.5t-12 32.5zM325 614q0 19 12.5 32.5t35.5 13.5t35 -13.5t12 -32.5t-12 -32.5t-35 -13.5t-35.5 13.5t-12.5 32.5z" />
    <glyph glyph-name="yacute" unicode="&#xfd;" horiz-adv-x="550" 
d="M400 95q-9 -16 -24 -32.5t-36 -30.5t-47.5 -23t-58.5 -9q-74 0 -117 45t-43 144v294h72v-294q0 -59 25.5 -91.5t71.5 -32.5q27 0 50.5 8.5t43 22t35.5 31t28 36.5v320h74v-447q0 -120 -56.5 -178.5t-159.5 -58.5q-48 0 -93 13.5t-72 31.5l19 59q28 -17 64 -27.5t78 -10.5
q35 0 62 8.5t46 28.5t28.5 53t9.5 82v58zM327 700l41 -56l-163 -100l-23 32z" />
    <glyph glyph-name="thorn" unicode="&#xfe;" horiz-adv-x="587" 
d="M152 230q0 -37 11.5 -68.5t31.5 -55t47 -36.5t58 -13q27 0 52 10t44 32.5t30.5 59t11.5 89.5q0 90 -36 133.5t-93 43.5q-47 0 -88 -24.5t-69 -62.5v-108zM152 674v-269q10 14 26.5 29.5t38 28t48 21t57.5 8.5q47 0 82.5 -19.5t59 -53t35.5 -78t12 -93.5q0 -64 -14.5 -112
t-41 -80.5t-63.5 -48.5t-81 -16q-55 0 -97 27.5t-62 66.5v-276h-74v865h74z" />
    <glyph glyph-name="ydieresis" unicode="&#xff;" horiz-adv-x="550" 
d="M400 95q-9 -16 -24 -32.5t-36 -30.5t-47.5 -23t-58.5 -9q-74 0 -117 45t-43 144v294h72v-294q0 -59 25.5 -91.5t71.5 -32.5q27 0 50.5 8.5t43 22t35.5 31t28 36.5v320h74v-447q0 -120 -56.5 -178.5t-159.5 -58.5q-48 0 -93 13.5t-72 31.5l19 59q28 -17 64 -27.5t78 -10.5
q35 0 62 8.5t46 28.5t28.5 53t9.5 82v58zM131 614q0 19 12 32.5t35 13.5t35.5 -13.5t12.5 -32.5t-12.5 -32.5t-35.5 -13.5t-35 13.5t-12 32.5zM323 614q0 19 12.5 32.5t35.5 13.5t35 -13.5t12 -32.5t-12 -32.5t-35 -13.5t-35.5 13.5t-12.5 32.5z" />
    <glyph glyph-name="dotlessi" unicode="&#x131;" horiz-adv-x="234" 
d="M154 0h-74v483h74v-483z" />
    <glyph glyph-name="Lslash" unicode="&#x141;" horiz-adv-x="510" 
d="M22 330l60 26v318h76v-285l149 65v-69l-149 -65v-250h322v-70h-398v287l-60 -26v69z" />
    <glyph glyph-name="lslash" unicode="&#x142;" horiz-adv-x="234" 
d="M153 386l56 24v-69l-56 -24v-317h-74v284l-54 -23v69l54 23v321h74v-288z" />
    <glyph glyph-name="OE" unicode="&#x152;" horiz-adv-x="991" 
d="M526 87q-26 -41 -70.5 -68.5t-116.5 -27.5q-75 0 -130.5 26t-92 72.5t-54 110t-17.5 137.5t17.5 137.5t53.5 110t91 72.5t129 26q37 0 66.5 -7.5t53 -20.5t41 -31t29.5 -38v88h409v-70h-333v-222h313v-69h-313v-244h339v-69h-415v87zM343 54q32 0 60 9.5t51.5 25.5
t41.5 37t30 45v135v205q-27 51 -76 79.5t-107 28.5q-113 0 -167.5 -75.5t-54.5 -206.5q0 -132 54.5 -207.5t167.5 -75.5z" />
    <glyph glyph-name="oe" unicode="&#x153;" horiz-adv-x="840" 
d="M456 208q7 -75 47.5 -116.5t118.5 -41.5q33 0 67 7.5t61 21.5q5 -14 9 -27.5t8 -27.5q-60 -33 -151 -33q-66 0 -112.5 21.5t-75.5 62.5q-24 -38 -61 -61t-100 -23q-58 0 -100 19t-69.5 53t-41 80t-13.5 99t13.5 98.5t41 79.5t69.5 53t100 19q63 0 101.5 -24t58.5 -59
q26 38 69 60.5t106 22.5q96 0 143.5 -54t47.5 -147q0 -23 -3 -44.5t-8 -38.5h-326zM116 242q0 -41 8.5 -76.5t27 -61t47 -40t68.5 -14.5q51 0 83.5 21.5t49.5 59.5q-8 23 -12.5 51.5t-4.5 59.5q0 59 15 107q-17 38 -48.5 60.5t-82.5 22.5q-40 0 -68.5 -14.5t-47 -40t-27 -60
t-8.5 -75.5zM602 435q-38 0 -65 -13t-44.5 -36t-26.5 -54.5t-11 -68.5h268q0 7 0.5 14t0.5 14q0 69 -28 106.5t-94 37.5z" />
    <glyph glyph-name="Scaron" unicode="&#x160;" horiz-adv-x="528" 
d="M248 -9q-72 0 -116.5 11t-76.5 28l20 62q29 -14 70 -24t94 -10q36 0 66.5 7t52.5 21.5t34.5 37.5t12.5 55t-13 53t-35.5 36t-51.5 25.5t-61 20.5t-65 24t-61 35.5t-45.5 53.5t-17.5 79q0 38 12.5 70.5t39.5 56t69 37t101 13.5q50 0 91 -9.5t74 -26.5l-20 -62
q-29 14 -67 22.5t-78 8.5q-79 0 -114 -30.5t-35 -78.5q0 -29 12 -49t32.5 -34.5t48 -25.5t58.5 -21q36 -12 71.5 -26.5t64 -37t46 -55t17.5 -80.5t-17 -83t-47.5 -58t-73 -34.5t-92.5 -11.5zM289 740h-51l-116 140h70l71 -89l72 89h70z" />
    <glyph glyph-name="scaron" unicode="&#x161;" horiz-adv-x="433" 
d="M198 49q61 0 87 22.5t26 54.5q0 40 -34 60.5t-83 34.5q-32 9 -58.5 21t-46 29t-30 40t-10.5 55q0 61 46.5 93.5t124.5 32.5q42 0 80 -8t67 -22l-17 -57q-27 13 -58 20.5t-66 7.5q-54 0 -80 -18t-26 -48q0 -35 27 -53t72 -32q81 -25 122.5 -59.5t41.5 -97.5
q0 -61 -44 -97.5t-138 -36.5q-46 0 -86 8t-67 23l17 55q26 -12 61 -20t72 -8zM242 544h-51l-116 140h70l71 -89l72 89h70z" />
    <glyph glyph-name="Ydieresis" unicode="&#x178;" horiz-adv-x="563" 
d="M319 285v-285h-76v285l-227 389h80l184 -324h2l183 324h81zM138 810q0 19 12 32.5t35 13.5t35.5 -13.5t12.5 -32.5t-12.5 -32.5t-35.5 -13.5t-35 13.5t-12 32.5zM330 810q0 19 12.5 32.5t35.5 13.5t35 -13.5t12 -32.5t-12 -32.5t-35 -13.5t-35.5 13.5t-12.5 32.5z" />
    <glyph glyph-name="Zcaron" unicode="&#x17d;" horiz-adv-x="547" 
d="M44 53l357 552h-332v69h426v-54l-356 -551h362v-69h-457v53zM299 740h-51l-116 140h70l71 -89l72 89h70z" />
    <glyph glyph-name="zcaron" unicode="&#x17e;" horiz-adv-x="449" 
d="M42 43l264 380h-244v60h334v-43l-264 -380h273v-60h-363v43zM250 544h-51l-116 140h70l71 -89l72 89h70z" />
    <glyph glyph-name="florin" unicode="&#x192;" horiz-adv-x="566" 
d="M244 397q6 57 15 105t28 83t51 54.5t84 19.5q24 0 43 -5.5t33 -13.5q-7 -14 -13.5 -28.5t-12.5 -28.5q-13 6 -27 8.5t-28 2.5q-45 0 -62.5 -30.5t-25.5 -87.5l-12 -79h126v-47h-132q-8 -61 -16.5 -122t-16.5 -122q-6 -41 -17.5 -74.5t-31 -57.5t-48.5 -37.5t-70 -13.5
q-24 0 -42.5 5.5t-32.5 13.5q7 14 13 28.5t12 28.5q13 -6 27 -8.5t28 -2.5q44 0 62 30.5t26 86.5q8 62 16.5 123t16.5 122h-92v47h99z" />
    <glyph glyph-name="circumflex" unicode="&#x2c6;" horiz-adv-x="295" 
d="M289 546h-70l-72 89l-71 -89h-70l116 140h51z" />
    <glyph glyph-name="caron" unicode="&#x2c7;" horiz-adv-x="295" 
d="M173 544h-51l-116 140h70l71 -89l72 89h70z" />
    <glyph glyph-name="breve" unicode="&#x2d8;" horiz-adv-x="295" 
d="M288 693q-3 -27 -13 -50t-28 -40.5t-43 -27.5t-56 -10q-32 0 -57 10t-43 27.5t-28.5 40.5t-13.5 50h53q5 -33 28 -53.5t61 -20.5q37 0 60.5 20.5t28.5 53.5h51z" />
    <glyph glyph-name="dotaccent" unicode="&#x2d9;" horiz-adv-x="295" 
d="M95 618q0 20 13.5 35t38.5 15t38.5 -15t13.5 -35q0 -21 -13.5 -36t-38.5 -15t-38.5 15t-13.5 36z" />
    <glyph glyph-name="ring" unicode="&#x2da;" horiz-adv-x="295" 
d="M99 633q0 -23 14 -37t34 -14t34.5 14t14.5 37t-14 37.5t-35 14.5q-20 0 -34 -14.5t-14 -37.5zM55 632q0 19 7 36t19.5 29.5t29.5 20t36 7.5t36 -7.5t29.5 -20t19.5 -29.5t7 -36t-7 -35.5t-19.5 -29t-29.5 -19.5t-36 -7t-36 7t-29.5 19.5t-19.5 29t-7 35.5z" />
    <glyph glyph-name="ogonek" unicode="&#x2db;" horiz-adv-x="295" 
d="M121 2h47l78 -120h-80z" />
    <glyph glyph-name="tilde" unicode="&#x2dc;" horiz-adv-x="295" 
d="M297 657q-1 -48 -23.5 -74t-61.5 -26q-23 0 -39.5 7.5t-30.5 16.5t-27.5 16.5t-28.5 7.5q-20 0 -28 -13.5t-8 -31.5h-52q1 47 22.5 73t63.5 26q21 0 37.5 -7.5t30.5 -16t28 -16t29 -7.5q20 0 27 12.5t7 32.5h54z" />
    <glyph glyph-name="hungarumlaut" unicode="&#x2dd;" horiz-adv-x="295" 
d="M123 688h80l-109 -136h-54zM279 688h79l-108 -136h-54z" />
    <glyph glyph-name="uni03A9" unicode="&#x3a9;" horiz-adv-x="745" 
d="M374 613q-107 0 -168 -63.5t-61 -181.5q0 -56 18 -105t44.5 -90t56.5 -72.5t55 -50.5v-50h-212v66h125q-23 21 -51 51.5t-53 70t-41.5 88.5t-16.5 107q0 68 21 123.5t60 94.5t95 60.5t126 21.5t126 -21.5t95.5 -60.5t60.5 -94.5t21 -123.5q0 -58 -17 -107t-41.5 -88.5
t-53 -70t-51.5 -51.5h125v-66h-212v50q25 19 55 50.5t56.5 72.5t44.5 90t18 105q0 118 -60.5 181.5t-164.5 63.5z" />
    <glyph glyph-name="pi" unicode="&#x3c0;" horiz-adv-x="594" 
d="M554 10q-13 -8 -33 -12.5t-43 -4.5q-35 0 -57.5 11t-36 30t-19 44.5t-5.5 53.5v291h-134v-228q0 -24 -2.5 -52t-6.5 -55t-10.5 -50.5t-13.5 -37.5h-73q9 16 15.5 41t10 52t5.5 54t2 48v228q-36 -1 -63.5 -7.5t-48.5 -16.5l-11 59q18 11 53 18.5t71 7.5h398v-61h-120v-298
q0 -34 13 -54.5t42 -20.5q19 0 30.5 2.5t20.5 7.5z" />
    <glyph glyph-name="uni0E00" unicode="&#xe00;" horiz-adv-x="195" 
 />
    <glyph glyph-name="uni0E01" unicode="&#xe01;" horiz-adv-x="601" 
d="M448 0v353q0 74 -39 112.5t-113 38.5q-59 0 -103.5 -26.5t-62.5 -68.5l81 -74q-57 -26 -57 -90v-245h-76v234q0 32 14.5 59t41.5 40l-84 71q9 31 30.5 61t54 53t73.5 37t88 14q56 0 99 -16t71.5 -45t43 -68.5t14.5 -86.5v-353h-76z" />
    <glyph glyph-name="uni0E02" unicode="&#xe02;" horiz-adv-x="552" 
d="M399 560h76v-372q0 -97 -49 -147t-155 -50t-155 51.5t-49 136.5v78q0 29 15.5 54t34.5 47.5t34.5 43.5t15.5 41v26q0 26 -26 26h-68v65h75q51 0 71 -23t20 -63v-30q0 -28 -15.5 -52t-33.5 -46.5t-33.5 -44.5t-15.5 -44v-78q0 -61 30.5 -92.5t99.5 -31.5q66 0 97 28
t31 104v373z" />
    <glyph glyph-name="uni0E03" unicode="&#xe03;" horiz-adv-x="556" 
d="M71 256q0 29 16.5 54t37 48t37 45.5t16.5 47.5v22q0 11 -5.5 19t-19.5 8t-24 -9.5t-16 -25.5q-19 10 -38.5 19t-38.5 18v67q17 -10 34.5 -19t34.5 -18q10 16 28 24.5t38 8.5q41 0 60.5 -24.5t19.5 -67.5v-22q0 -32 -16.5 -58t-36.5 -48.5t-36.5 -44t-16.5 -44.5v-77
q0 -61 30.5 -92.5t99.5 -31.5q66 0 97 28t31 104v373h76v-372q0 -97 -49 -147t-155 -50t-155 51.5t-49 136.5v77z" />
    <glyph glyph-name="uni0E04" unicode="&#xe04;" horiz-adv-x="617" 
d="M308 569q56 0 99.5 -16.5t73 -45.5t44.5 -68t15 -84v-355h-76v356q0 66 -39 107t-117 41t-116.5 -41t-38.5 -107v-127q14 31 44 52.5t74 21.5h69v-67h-69q-43 0 -73.5 -24.5t-44.5 -71.5v-140h-76v355q0 45 15 84t44.5 68t72.5 45.5t99 16.5z" />
    <glyph glyph-name="uni0E05" unicode="&#xe05;" horiz-adv-x="626" 
d="M154 229q14 31 44 52.5t75 21.5h69v-67h-69q-44 0 -74.5 -24.5t-44.5 -71.5v-140h-76v388q0 75 32.5 120.5t101.5 60.5l101 -68l101 68q134 -29 134 -181v-388h-76v396q0 82 -61 102l-98 -59l-98 59q-61 -20 -61 -102v-167z" />
    <glyph glyph-name="uni0E06" unicode="&#xe06;" horiz-adv-x="602" 
d="M155 176q11 -24 28.5 -46t40 -38.5t49 -26t53.5 -9.5q66 0 94.5 39.5t28.5 112.5v352h76v-353q0 -102 -46.5 -159t-143.5 -57q-60 0 -105 25.5t-75 71.5l-5 -88h-71v250q0 29 15.5 54t33.5 49t33.5 48t15.5 51v21q0 12 -6 19.5t-20 7.5q-28 0 -39 -35l-78 38v66l69 -37
q10 16 28 24.5t38 8.5q41 0 60.5 -24.5t19.5 -66.5v-22q0 -34 -14.5 -61t-32.5 -51t-32.5 -45.5t-14.5 -44.5v-74z" />
    <glyph glyph-name="uni0E07" unicode="&#xe07;" horiz-adv-x="555" 
d="M185 0l-170 560h75l151 -495h15q34 0 65.5 15.5t55.5 45.5t38.5 73t14.5 98q0 56 -10 95.5t-27.5 64t-41 36t-50.5 11.5q-34 0 -62 -10l-11 60q15 8 37 11.5t40 3.5q44 0 81 -17.5t63.5 -51.5t41 -85t14.5 -118q0 -69 -20.5 -124.5t-55 -93.5t-80 -58.5t-95.5 -20.5h-69z
" />
    <glyph glyph-name="uni0E08" unicode="&#xe08;" horiz-adv-x="538" 
d="M180 0l-56 231q-5 23 -27 23h-38v65h44q40 0 61.5 -15.5t30.5 -57.5l42 -181h14q31 0 60 15.5t51.5 45t36 73.5t13.5 101q0 106 -45.5 155t-131.5 49q-59 0 -107.5 -20t-85.5 -50l-24 59q40 32 96.5 54t119.5 22t110.5 -18.5t79.5 -53.5t48 -85t16 -113q0 -66 -18 -120.5
t-50.5 -94.5t-77.5 -62t-99 -22h-63z" />
    <glyph glyph-name="uni0E09" unicode="&#xe09;" horiz-adv-x="587" 
d="M439 0l-5 87q-13 -20 -29.5 -37.5t-37.5 -30.5t-48 -20.5t-62 -7.5q-81 0 -122 41t-41 128v71q0 23 -20 23h-32v64h51q35 0 55 -18t20 -59v-78q0 -56 24 -81.5t81 -25.5q27 0 51.5 9.5t45 26t37 38.5t27.5 46v160q0 80 -40 124t-120 44q-63 0 -116.5 -19.5t-92.5 -47.5
l-28 57q45 32 103.5 53.5t132.5 21.5q59 0 103.5 -16.5t74 -47t44.5 -73.5t15 -96v-336h-71z" />
    <glyph glyph-name="uni0E0A" unicode="&#xe0a;" horiz-adv-x="553" 
d="M476 189q0 -98 -49 -148t-155 -50t-155.5 52t-49.5 137v77q0 29 16 54.5t34.5 48t34.5 43t16 41.5v25q0 26 -27 26h-68v65h76q50 0 70.5 -23t20.5 -63v-29q0 -28 -15.5 -52.5t-34 -47t-34 -44t-15.5 -44.5v-77q0 -62 31 -93.5t100 -31.5q32 0 56 6.5t39.5 22t23.5 41
t8 63.5v104q0 43 -19 63t-49 20h-20l-11 32l109 153h83l-112 -146q42 -7 69 -40t27 -81v-104z" />
    <glyph glyph-name="uni0E0B" unicode="&#xe0b;" horiz-adv-x="556" 
d="M145 180q0 -62 30.5 -93.5t99.5 -31.5q32 0 56 6.5t40 22t24 41t8 63.5v104q0 43 -19 63t-49 20h-20l-11 32l108 153h83l-112 -146q42 -7 69 -40t27 -81v-104q0 -98 -49 -148t-155 -50q-53 0 -91.5 13.5t-63.5 38.5t-37 60t-12 77v77q0 29 17 53.5t37 47.5t37 45.5
t17 48.5v21q0 12 -6 19.5t-20 7.5q-28 0 -39 -35l-78 38v66l69 -37q10 16 28 24.5t38 8.5q41 0 60.5 -24.5t19.5 -66.5v-22q0 -32 -16.5 -58t-36.5 -49t-36.5 -44t-16.5 -44v-77z" />
    <glyph glyph-name="uni0E0C" unicode="&#xe0c;" horiz-adv-x="919" 
d="M425 353q0 74 -35 112.5t-104 38.5q-53 0 -95.5 -26.5t-60.5 -68.5q20 -19 40 -37t41 -37q-57 -26 -57 -90v-154q0 -28 26 -28h54v-63h-73q-39 0 -61 23.5t-22 61.5v149q0 32 14.5 59t41.5 40q-21 17 -42 35l-42 36q9 31 30 61t52 53t70 37t84 14q54 0 94.5 -16t67 -45
t40 -68.5t13.5 -86.5v-177q11 -25 28 -46.5t38 -38t44.5 -26t47.5 -9.5q58 0 82.5 39t24.5 108v357h76v-344q0 -52 -9.5 -93.5t-30.5 -71t-54 -45t-79 -15.5q-55 0 -96.5 25.5t-70.5 70.5l-6 -87h-71v353z" />
    <glyph glyph-name="uni0E0D" unicode="&#xe0d;" horiz-adv-x="919" 
d="M840 63q0 -58 -15.5 -100t-44 -69t-68.5 -39.5t-88 -12.5q-57 0 -104 13t-75 31l19 59q29 -17 67.5 -27t79.5 -10q36 0 64 6.5t48 23.5t30.5 47.5t10.5 78.5v33q-9 -18 -24.5 -35.5t-36.5 -31t-48 -22t-59 -8.5q-37 0 -68.5 11t-54.5 34t-36 58.5t-13 83.5v166
q0 74 -34.5 112.5t-103.5 38.5q-53 0 -95.5 -26.5t-60.5 -68.5l81 -74q-57 -26 -57 -90v-154q0 -28 26 -28h54v-63h-73q-39 0 -61 23.5t-22 61.5v149q0 29 14.5 57t41.5 42l-84 71q9 31 30 61t52 53t70 37t84 14q54 0 94 -16t67 -45t40 -68.5t13 -86.5v-166q0 -56 25.5 -89
t82.5 -33q56 0 95 31.5t61 73.5v390h76v-497z" />
    <glyph glyph-name="uni0E0E" unicode="&#xe0e;" horiz-adv-x="609" 
d="M456 353q0 74 -38.5 112.5t-111.5 38.5q-60 0 -105 -27.5t-62 -68.5l93 -79q-58 -25 -58 -90v-155q0 -39 -22.5 -61.5t-60.5 -22.5h-59v63h41q14 0 19.5 7t5.5 20v139q0 31 15 58t41 40l-96 75q9 31 31 61.5t54.5 53.5t74 37.5t88.5 14.5q56 0 98 -16t70.5 -45t43 -68.5
t14.5 -86.5v-553h-93q-26 23 -60 40t-79 17q-49 0 -83 -15t-66 -41q-5 14 -10 29l-10 30q28 26 67.5 44t93.5 18q48 0 93 -20.5t71 -48.5v500z" />
    <glyph glyph-name="uni0E0F" unicode="&#xe0f;" horiz-adv-x="609" 
d="M532 -200h-73l-123 74q-16 -37 -50.5 -58.5t-72.5 -21.5q-37 0 -70 9t-53 23l10 32l10 32q20 -14 47.5 -24.5t50.5 -10.5q42 0 72 28.5t39 71.5l137 -82v480q0 74 -38.5 112.5t-111.5 38.5q-60 0 -105 -27.5t-62 -68.5l71 -57l22 -22q-58 -25 -58 -90v-155
q0 -39 -22.5 -61.5t-60.5 -22.5h-59v63h41q14 0 19.5 7t5.5 20v139q0 31 15 58t41 40q-24 19 -47.5 37.5t-48.5 37.5q9 31 31 61.5t54.5 53.5t74 37.5t88.5 14.5q56 0 98 -16t70.5 -45t43 -68.5t14.5 -86.5v-553z" />
    <glyph glyph-name="uni0E10" unicode="&#xe10;" horiz-adv-x="538" 
d="M180 0l-56 231q-5 23 -27 23h-38v65h44q40 0 61.5 -15.5t30.5 -57.5l42 -181h14q31 0 60 15.5t51.5 45t36 73.5t13.5 101q0 103 -45.5 153.5t-131.5 50.5q-59 0 -108 -20t-85 -50l-24 59q40 32 96.5 54t119.5 22q74 0 130 -31l53 61h86l-85 -101q35 -36 52.5 -86.5
t17.5 -112.5q0 -66 -18 -120.5t-50.5 -94.5t-77.5 -62t-99 -22h-63zM336 -200q-34 0 -58.5 14t-40.5 35q-14 -22 -41.5 -35.5t-62.5 -13.5h-65v66h71q32 0 56 15t42 38q19 -23 40 -38t55 -15h53v59h71v-125h-120z" />
    <glyph glyph-name="uni0E11" unicode="&#xe11;" horiz-adv-x="606" 
d="M154 0h-75v219q0 37 9.5 69.5t24 60t31.5 50t33 40.5v34q0 11 -6 19t-20 8q-13 0 -23.5 -9.5t-15.5 -25.5l-70 37v67q15 -10 30.5 -19t30.5 -18q10 16 28 24.5t39 8.5q32 0 50.5 -21.5t19.5 -50.5q22 30 58 53t86 23q31 0 57.5 -10t45.5 -31.5t30 -55t11 -79.5v-393h-76
v392q0 65 -18.5 88.5t-52.5 23.5q-40 0 -80.5 -27.5t-73 -69t-53 -91.5t-20.5 -95v-221z" />
    <glyph glyph-name="uni0E12" unicode="&#xe12;" horiz-adv-x="983" 
d="M546 176q11 -24 28.5 -46t39 -38.5t47 -26t51.5 -9.5q63 0 90.5 39.5t27.5 112.5v352h76v-353q0 -102 -45 -159t-140 -57q-59 0 -102 25.5t-73 71.5l-5 -88h-71v399q0 42 -15.5 66t-43.5 34l-80 -53l-76 52q-27 -6 -50.5 -23t-40.5 -44.5t-27 -65.5t-10 -85
q0 -60 12.5 -102t33.5 -68.5t48 -38.5t56 -12q21 0 37 3t32 10l14 -60q-17 -8 -39.5 -13t-47.5 -5q-47 0 -87.5 16.5t-70.5 51.5t-47 88.5t-17 128.5q0 60 15 109.5t41.5 87t63 61t80.5 32.5l80 -62l82 62q64 -13 98.5 -57.5t34.5 -117.5v-218z" />
    <glyph glyph-name="uni0E13" unicode="&#xe13;" horiz-adv-x="919" 
d="M769 0l-6 87q-29 -45 -70.5 -70.5t-99.5 -25.5q-86 0 -127.5 49.5t-41.5 134.5v178q0 74 -34.5 112.5t-103.5 38.5q-53 0 -95.5 -26.5t-60.5 -68.5l81 -74q-57 -26 -57 -90v-154q0 -28 26 -28h54v-63h-73q-39 0 -61 23.5t-22 61.5v149q0 32 14.5 59t41.5 40l-84 71
q9 31 30 61t52 53t70 37t84 14q54 0 94 -16t67 -45t40 -68.5t13 -86.5v-177q0 -55 23.5 -87.5t73.5 -32.5q28 0 53 9.5t47 26t39 38t28 46.5v384h76v-560h-71z" />
    <glyph glyph-name="uni0E14" unicode="&#xe14;" horiz-adv-x="620" 
d="M467 0v336q0 36 -9 67t-28 53.5t-47.5 35t-67.5 12.5q-47 0 -82.5 -16.5t-59 -47t-35.5 -73t-12 -94.5q0 -59 14 -99.5t36 -66t49.5 -37t54.5 -11.5q21 0 36.5 3t30.5 9l14 -60q-17 -8 -38.5 -12.5t-46.5 -4.5q-44 0 -84.5 16.5t-72 51t-50.5 87t-19 124.5q0 62 17.5 116
t51.5 94t82.5 63t111.5 23q59 0 102.5 -18.5t72 -50.5t42 -74.5t13.5 -90.5v-335h-76z" />
    <glyph glyph-name="uni0E15" unicode="&#xe15;" horiz-adv-x="633" 
d="M336 445q-20 14 -40 26.5t-40 25.5q-27 -6 -51 -23t-41.5 -44.5t-28 -66t-10.5 -87.5q0 -59 13.5 -100t35 -67t49 -38t56.5 -12q21 0 36.5 3t31.5 10q4 -15 7.5 -30t6.5 -30q-17 -8 -39 -13t-48 -5q-46 0 -87 16.5t-71.5 51t-48 87.5t-17.5 127q0 61 15 111t42 87.5
t64 61.5t81 33q21 -16 42 -31.5t42 -30.5q22 15 43 30.5t43 31.5q63 -14 98 -58t35 -117v-394h-76v399q0 41 -15.5 65t-44.5 34l-83 -53v0z" />
    <glyph glyph-name="uni0E16" unicode="&#xe16;" horiz-adv-x="603" 
d="M154 91q0 -28 26 -28h54v-63h-73q-39 0 -61 23.5t-22 61.5v149q0 32 14.5 59t41.5 40q-21 17 -42 35l-42 36q9 31 31 61t54.5 53t73.5 37t88 14q56 0 98.5 -16t71.5 -45t43.5 -68.5t14.5 -86.5v-353h-76v353q0 74 -39 112.5t-113 38.5q-59 0 -104 -26.5t-63 -68.5
q20 -19 40 -37t41 -37q-57 -26 -57 -90v-154z" />
    <glyph glyph-name="uni0E17" unicode="&#xe17;" horiz-adv-x="612" 
d="M459 363q0 73 -27.5 107t-78.5 34q-32 0 -61.5 -9.5t-55 -26t-46.5 -38t-35 -45.5v-385h-76v560h71l5 -88q17 19 38.5 36.5t47 31t54.5 21.5t62 8q88 0 133 -54.5t45 -151.5v-363h-76v363z" />
    <glyph glyph-name="uni0E18" unicode="&#xe18;" horiz-adv-x="552" 
d="M500 153q0 -48 -12.5 -79.5t-39.5 -49.5t-69.5 -25.5t-102.5 -7.5t-102.5 8.5t-69.5 28.5t-39.5 53t-12.5 81v58h73v-58q0 -32 8 -53t26 -33t46.5 -17t70.5 -5q43 0 72 4t46.5 14.5t25 30t7.5 50.5v50q0 30 -15.5 44.5t-44.5 19.5l-189 26q-60 8 -95 40t-35 93
q0 64 56.5 104.5t163.5 40.5q61 0 112.5 -12t92.5 -32l-15 -61q-38 20 -86 31t-102 11q-78 0 -113.5 -23t-35.5 -59q0 -32 17.5 -46.5t46.5 -19.5l190 -28q63 -9 94 -40.5t31 -89.5v-49z" />
    <glyph glyph-name="uni0E19" unicode="&#xe19;" horiz-adv-x="602" 
d="M153 198q0 -72 28 -107t94 -35q27 0 53 9.5t49 26t41 38.5t29 46v384h76v-560h-71l-5 88q-30 -45 -76.5 -71t-112.5 -26q-91 0 -136 52t-45 154v363h76v-362z" />
    <glyph glyph-name="uni0E1A" unicode="&#xe1a;" horiz-adv-x="600" 
d="M300 56q75 0 111 39.5t36 108.5v356h76v-356q0 -103 -56.5 -158t-166.5 -55t-166.5 55t-56.5 158v356h76v-356q0 -69 36 -108.5t111 -39.5z" />
    <glyph glyph-name="uni0E1B" unicode="&#xe1b;" horiz-adv-x="600" 
d="M300 56q75 0 111 39.5t36 108.5v546h76v-546q0 -103 -56.5 -158t-166.5 -55t-166.5 55t-56.5 158v356h76v-356q0 -69 36 -108.5t111 -39.5z" />
    <glyph glyph-name="uni0E1C" unicode="&#xe1c;" horiz-adv-x="655" 
d="M468 195q13 -25 22.5 -52t18.5 -58h1q-5 37 -6.5 73t-1.5 77v325h74v-560h-82l-134 265q-11 23 -19 45.5t-11 33.5h-2q-2 -11 -10 -33.5t-20 -45.5l-137 -265h-82v475q0 38 22.5 62t61.5 23h62v-65h-44q-28 0 -28 -28v-232q0 -41 -2 -77t-7 -73h2q8 26 18 56t24 55
l111 207h61z" />
    <glyph glyph-name="uni0E1D" unicode="&#xe1d;" horiz-adv-x="655" 
d="M468 195q13 -25 22.5 -52t18.5 -58h1q-5 37 -6.5 73t-1.5 77v515h74v-750h-82l-134 265q-11 23 -19 45.5t-11 33.5h-2q-2 -11 -10 -33.5t-20 -45.5l-137 -265h-82v475q0 38 22.5 62t61.5 23h62v-65h-44q-28 0 -28 -28v-232q0 -41 -2 -77t-7 -73h2q8 26 18 56t24 55
l111 207h61z" />
    <glyph glyph-name="uni0E1E" unicode="&#xe1e;" horiz-adv-x="700" 
d="M382 532l101 -308q9 -28 17 -62t15 -83h2q2 50 6 83.5t9 62.5l53 335h77l-92 -560h-84l-110 328q-9 26 -15.5 62t-9.5 65h-2q-3 -29 -9.5 -65t-15.5 -62l-110 -328h-84q-23 141 -46 280t-46 280h77l53 -335q5 -29 9 -62.5t6 -83.5h2q7 49 15 83t17 62l101 308h64z" />
    <glyph glyph-name="uni0E1F" unicode="&#xe1f;" horiz-adv-x="700" 
d="M384 532l103 -308q9 -28 17 -62t15 -83h2q2 50 6 83.5t9 62.5l54 525h77l-93 -750h-84l-112 328q-9 26 -15.5 62t-9.5 65h-2q-3 -29 -9.5 -65t-15.5 -62l-112 -328h-84q-23 141 -46 280t-46 280h77l53 -335q5 -29 9 -62.5t6 -83.5h2q7 49 16 83t18 62l101 308h64z" />
    <glyph glyph-name="uni0E20" unicode="&#xe20;" horiz-adv-x="609" 
d="M456 353q0 74 -38.5 112.5t-111.5 38.5q-60 0 -105 -27.5t-62 -68.5l93 -79q-58 -25 -58 -90v-155q0 -39 -22.5 -61.5t-60.5 -22.5h-59v63h41q14 0 19.5 7t5.5 20v139q0 31 15 58t41 40l-96 75q9 31 31 61.5t54.5 53.5t74 37.5t88.5 14.5q56 0 98 -16t70.5 -45t43 -68.5
t14.5 -86.5v-353h-76v353z" />
    <glyph glyph-name="uni0E21" unicode="&#xe21;" horiz-adv-x="602" 
d="M449 560h76v-353q0 -102 -46.5 -159t-143.5 -57q-60 0 -105 25.5t-75 71.5l-5 -88h-71v560h76v-384q11 -24 28.5 -46t40 -38.5t49 -26t53.5 -9.5q66 0 94.5 39.5t28.5 112.5v352z" />
    <glyph glyph-name="uni0E22" unicode="&#xe22;" horiz-adv-x="577" 
d="M424 560h76v-355q0 -49 -13 -88.5t-41 -67.5t-71.5 -43t-104.5 -15q-103 0 -162.5 45.5t-59.5 132.5q0 51 25 87.5t70 51.5q-42 11 -68.5 43t-26.5 86q0 55 36.5 92t102.5 37q27 0 49 -5t37 -12q-2 -16 -4.5 -31.5t-4.5 -31.5q-10 5 -28 10t-37 5q-39 0 -58.5 -20.5
t-19.5 -52.5q0 -20 9 -36t23 -26.5t31.5 -16t34.5 -5.5h81q2 -17 3.5 -33t2.5 -33h-74q-47 0 -78.5 -29t-31.5 -76q0 -30 12.5 -52t33 -36.5t47.5 -21.5t56 -7q78 0 115.5 38.5t37.5 111.5v354z" />
    <glyph glyph-name="uni0E23" unicode="&#xe23;" horiz-adv-x="490" 
d="M227 55q70 0 106 27t36 66q0 24 -13 41t-34 30t-47.5 22.5t-53.5 17.5q-36 10 -67.5 23t-55.5 32t-37.5 45t-13.5 64q0 69 54.5 107.5t148.5 38.5q48 0 93 -10t78 -27l-19 -59q-30 15 -66 23.5t-78 8.5q-67 0 -102 -23t-35 -59q0 -21 10.5 -36t28 -26.5t40.5 -20
t49 -16.5q42 -13 78 -28t61.5 -35.5t40 -48.5t14.5 -66q0 -71 -51.5 -113t-160.5 -42q-56 0 -103 10.5t-79 29.5l19 59q29 -16 71 -25.5t88 -9.5z" />
    <glyph glyph-name="uni0E24" unicode="&#xe24;" horiz-adv-x="603" 
d="M154 91q0 -28 26 -28h54v-63h-73q-39 0 -61 23.5t-22 61.5v149q0 32 14.5 59t41.5 40q-21 17 -42 35l-42 36q9 31 31 61t54.5 53t73.5 37t88 14q56 0 98.5 -16t71.5 -45t43.5 -68.5t14.5 -86.5v-553h-76v553q0 74 -39 112.5t-113 38.5q-59 0 -104 -26.5t-63 -68.5
q20 -19 40 -37t41 -37q-57 -26 -57 -90v-154z" />
    <glyph glyph-name="uni0E25" unicode="&#xe25;" horiz-adv-x="572" 
d="M419 0v276h-142q-76 0 -120 -28t-44 -91q0 -53 32.5 -78t77.5 -25q23 0 45.5 4.5t39.5 12.5l13 -62q-20 -8 -48 -13t-57 -5q-38 0 -70.5 10t-56.5 30.5t-37.5 51.5t-13.5 73q0 88 61 136.5t186 48.5h134v18q0 70 -32.5 108.5t-111.5 38.5q-58 0 -106.5 -17t-84.5 -42
l-25 54q16 12 39 24t51.5 22t61.5 16t69 6q105 0 160 -56t55 -153v-360h-76z" />
    <glyph glyph-name="uni0E26" unicode="&#xe26;" horiz-adv-x="609" 
d="M456 353q0 74 -38.5 112.5t-111.5 38.5q-60 0 -105 -27.5t-62 -68.5l93 -79q-58 -25 -58 -90v-155q0 -39 -22.5 -61.5t-60.5 -22.5h-59v63h41q14 0 19.5 7t5.5 20v139q0 31 15 58t41 40l-96 75q9 31 31 61.5t54.5 53.5t74 37.5t88.5 14.5q56 0 98 -16t70.5 -45t43 -68.5
t14.5 -86.5v-553h-76v553z" />
    <glyph glyph-name="uni0E27" unicode="&#xe27;" horiz-adv-x="518" 
d="M56 104q34 -21 75 -34.5t89 -13.5q79 0 125.5 54t46.5 168q0 115 -44 170.5t-128 55.5q-52 0 -91.5 -14t-74.5 -37l-18 61q37 23 86.5 39t102.5 16q119 0 181 -75.5t62 -210.5q0 -144 -64.5 -218t-184.5 -74q-57 0 -101 13.5t-80 37.5z" />
    <glyph glyph-name="uni0E28" unicode="&#xe28;" horiz-adv-x="617" 
d="M308 569q36 0 66.5 -7.5t56.5 -21.5l50 59h87l-84 -98q27 -29 41.5 -66.5t14.5 -79.5v-355h-76v356q0 66 -39 107t-117 41t-116.5 -41t-38.5 -107v-127q14 31 44 52.5t74 21.5h69v-67h-69q-43 0 -73.5 -24.5t-44.5 -71.5v-140h-76v355q0 45 15 84t44.5 68t72.5 45.5
t99 16.5z" />
    <glyph glyph-name="uni0E29" unicode="&#xe29;" horiz-adv-x="614" 
d="M300 56q75 0 111 39.5t36 108.5v94h-133v65h133v197h76v-197h83l-17 -65h-66v-94q0 -103 -56.5 -158t-166.5 -55t-166.5 55t-56.5 158v356h76v-356q0 -69 36 -108.5t111 -39.5z" />
    <glyph glyph-name="uni0E2A" unicode="&#xe2a;" horiz-adv-x="572" 
d="M419 0v276h-142q-76 0 -120 -28t-44 -91q0 -53 32.5 -78t77.5 -25q23 0 45.5 4.5t39.5 12.5l13 -62q-20 -8 -48 -13t-57 -5q-38 0 -70.5 10t-56.5 30.5t-37.5 51.5t-13.5 73q0 88 61 136.5t186 48.5h134v18q0 67 -32.5 107t-109.5 40q-60 0 -108.5 -17t-84.5 -42l-25 54
q16 12 40 24.5t52.5 22t60.5 15.5t65 6q34 0 62.5 -6.5t51.5 -17.5l47 54h87l-80 -94q50 -55 50 -145v-360h-76z" />
    <glyph glyph-name="uni0E2B" unicode="&#xe2b;" horiz-adv-x="578" 
d="M468 0l-73 254q-29 96 -110 99l-130 -107v-246h-76v560h76v-230l277 230h103l-195 -162q54 -8 84.5 -44t47.5 -93l76 -261h-80z" />
    <glyph glyph-name="uni0E2C" unicode="&#xe2c;" horiz-adv-x="655" 
d="M576 0h-82l-137 265q-12 23 -20 45.5t-10 33.5h-2q-3 -11 -11 -33.5t-19 -45.5l-134 -265h-82v560h74v-325q0 -41 -1.5 -77t-6.5 -73h1q9 31 18.5 58t22.5 52l108 208h61l111 -207q14 -25 24 -55t18 -56h2q-5 37 -7 73t-2 77v199q0 52 -18 73t-64 21h-15l-11 32l130 190
h79l-132 -183q54 -6 79.5 -43t25.5 -89v-435z" />
    <glyph glyph-name="uni0E2D" unicode="&#xe2d;" horiz-adv-x="586" 
d="M159 254q-14 0 -23 -9.5t-9 -26.5v-28q0 -134 155 -134q85 0 131 53.5t46 171.5q0 109 -47 166t-132 57q-63 0 -113 -18.5t-87 -46.5l-25 56q17 14 41 27t53 23.5t62.5 17t69.5 6.5q124 0 189 -78t65 -214q0 -140 -63.5 -213t-188.5 -73q-117 0 -174 51.5t-57 147.5v31
q0 49 26.5 73.5t72.5 24.5h89v-65h-81z" />
    <glyph glyph-name="uni0E2E" unicode="&#xe2e;" horiz-adv-x="586" 
d="M159 254q-14 0 -23 -9.5t-9 -26.5v-28q0 -134 155 -134q85 0 131 53.5t46 171.5q0 109 -47 166t-132 57q-63 0 -113 -18.5t-87 -46.5l-25 56q17 14 41 27t53 23.5t62.5 17t69.5 6.5q33 0 61.5 -6.5t53.5 -17.5l47 54h87l-78 -92q41 -38 62 -96.5t21 -133.5
q0 -140 -63.5 -213t-188.5 -73q-117 0 -174 51.5t-57 147.5v31q0 49 26.5 73.5t72.5 24.5h89v-65h-81z" />
    <glyph glyph-name="uni0E2F" unicode="&#xe2f;" horiz-adv-x="536" 
d="M381 0v422q-10 -21 -28 -39t-41.5 -31t-51 -20.5t-57.5 -7.5q-45 0 -76.5 14.5t-51 41t-28.5 62.5t-9 80v38h73v-39q0 -69 25.5 -103t81.5 -34q31 0 61.5 14t54 36.5t38 50.5t14.5 57v18h71v-560h-76z" />
    <glyph glyph-name="uni0E30" unicode="&#xe30;" horiz-adv-x="296" 
d="M132 370q-40 0 -63.5 18t-23.5 60v44h72v-36q0 -13 5.5 -18.5t19.5 -5.5h104v-62h-114zM132 89q-40 0 -63.5 17.5t-23.5 59.5v45h72v-37q0 -12 5.5 -17.5t19.5 -5.5h104v-62h-114z" />
    <glyph glyph-name="uni0E31" unicode="&#xe31;" 
d="M-188 638q-95 0 -95 85v39h72v-30q0 -32 32 -32h239v-62h-248z" />
    <glyph glyph-name="uni0E32" unicode="&#xe32;" horiz-adv-x="467" 
d="M314 0v363q0 72 -30.5 106.5t-91.5 34.5q-48 0 -90.5 -17.5t-71.5 -40.5l-20 57q15 12 35.5 24t45 21t52 15t54.5 6q97 0 145 -54t48 -152v-363h-76z" />
    <glyph glyph-name="uni0E33" unicode="&#xe33;" horiz-adv-x="467" 
d="M-117 622q-20 0 -37 7t-29.5 20t-20 30.5t-7.5 37.5t7.5 37.5t20 30.5t29.5 20.5t37 7.5q40 0 68 -27.5t28 -68.5t-28 -68t-68 -27zM-117 672q19 0 32 13t13 33t-13 32.5t-32 12.5q-17 0 -30 -12.5t-13 -32.5t13 -33t30 -13zM314 0v363q0 72 -30.5 106.5t-91.5 34.5
q-48 0 -90.5 -17.5t-71.5 -40.5l-20 57q15 12 35.5 24t45 21t52 15t54.5 6q97 0 145 -54t48 -152v-363h-76z" />
    <glyph glyph-name="uni0E34" unicode="&#xe34;" 
d="M-502 638v62h425v-62h-425z" />
    <glyph glyph-name="uni0E35" unicode="&#xe35;" 
d="M-502 638v62h353v94h72v-156h-425z" />
    <glyph glyph-name="uni0E36" unicode="&#xe36;" 
d="M-501 638v62h282q-5 10 -5 22q0 36 24.5 61t59.5 25t60 -25t25 -61q0 -18 -6.5 -33.5t-18 -26.5t-27 -17.5t-33.5 -6.5h-361zM-140 687q15 0 25 10.5t10 25.5q0 16 -10 26t-25 10q-14 0 -24.5 -10t-10.5 -26q0 -15 10.5 -25.5t24.5 -10.5z" />
    <glyph glyph-name="uni0E37" unicode="&#xe37;" 
d="M-502 638v62h246v94h63v-96h52v96h64v-156h-425z" />
    <glyph glyph-name="uni0E38" unicode="&#xe38;" 
d="M-151 -254v97q0 22 -22 22h-37v63h57q39 0 57.5 -18.5t18.5 -61.5v-102h-74z" />
    <glyph glyph-name="uni0E39" unicode="&#xe39;" 
d="M-201 -265q-61 0 -92 26.5t-31 75.5v30h-52v62h123v-73q0 -37 11 -51.5t41 -14.5t41 14.5t11 51.5v73h72v-92q0 -49 -31.5 -75.5t-92.5 -26.5z" />
    <glyph glyph-name="uni0E3A" unicode="&#xe3a;" 
d="M-57 -123q0 -23 -17.5 -40.5t-43.5 -17.5q-24 0 -42 17.5t-18 40.5q0 24 18 42t42 18q26 0 43.5 -18t17.5 -42z" />
    <glyph glyph-name="uni0E3F" unicode="&#xe3f;" horiz-adv-x="566" 
d="M273 0h-196v650h196v100h51v-101q88 -7 133.5 -52t45.5 -118q0 -29 -9.5 -52t-24.5 -40t-33.5 -28.5t-36.5 -17.5q24 -4 48 -15t42.5 -29.5t30 -45.5t11.5 -63q0 -80 -51 -130.5t-156 -56.5v-101h-51v100zM273 66v237h-123v-237h123zM273 369v215h-123v-215h123zM458 188
q0 59 -36.5 84t-97.5 30v-235q65 5 99.5 36t34.5 85zM430 482q0 46 -28.5 70.5t-77.5 29.5v-212q45 7 75.5 34t30.5 78z" />
    <glyph glyph-name="uni0E40" unicode="&#xe40;" horiz-adv-x="236" 
d="M80 0v560h76v-560h-76z" />
    <glyph glyph-name="uni0E41" unicode="&#xe41;" horiz-adv-x="430" 
d="M80 0v560h74v-560h-74zM276 0v560h74v-560h-74z" />
    <glyph glyph-name="uni0E42" unicode="&#xe42;" horiz-adv-x="267" 
d="M106 0v615q0 45 -14 79t-32.5 57t-37 36t-28.5 18l-2 17q32 56 93.5 84.5t135.5 28.5q30 0 53 -2t42 -6t35 -8.5t30 -10.5l-13 -66q-28 15 -65.5 22t-74.5 7q-49 0 -89 -13t-62 -39q52 -29 78.5 -86t26.5 -126v-607h-76z" />
    <glyph glyph-name="uni0E43" unicode="&#xe43;" horiz-adv-x="267" 
d="M106 0v542q0 42 19 75.5t41.5 62.5t41.5 56.5t19 57.5q0 32 -20 53.5t-65 21.5q-38 0 -78 -17t-73 -52l-24 53q25 34 74.5 58t105.5 24q39 0 68.5 -11t49.5 -30t30.5 -45t10.5 -55q0 -38 -19.5 -69t-42.5 -61.5t-42.5 -64t-19.5 -76.5v-523h-76z" />
    <glyph glyph-name="uni0E44" unicode="&#xe44;" horiz-adv-x="267" 
d="M106 0v673q0 60 21 107t60 78h-246v63h342v-54q-48 -23 -74.5 -67.5t-26.5 -107.5v-692h-76z" />
    <glyph glyph-name="uni0E45" unicode="&#xe45;" horiz-adv-x="467" 
d="M314 -200v563q0 72 -30.5 106.5t-91.5 34.5q-48 0 -90.5 -17.5t-71.5 -40.5l-20 57q15 12 35.5 24t45 21t52 15t54.5 6q97 0 145 -54t48 -152v-563h-76z" />
    <glyph glyph-name="uni0E46" unicode="&#xe46;" horiz-adv-x="556" 
d="M401 -200v617q0 38 -13.5 61.5t-39.5 28.5l-83 -59l-85 59q-29 -5 -46.5 -23t-17.5 -45q0 -33 18.5 -50.5t50.5 -17.5q8 0 15.5 1t15.5 3l9 -57q-11 -4 -24 -5.5t-24 -1.5q-24 0 -46.5 7t-40.5 22.5t-29 40t-11 58.5q0 28 11 50.5t30 39.5t43.5 27.5t50.5 14.5l79 -61
l81 61q66 -5 99 -50t33 -110v-611h-76z" />
    <glyph glyph-name="uni0E47" unicode="&#xe47;" 
d="M-176 638q-24 0 -44 12.5t-29 34.5q-7 -22 -28 -36.5t-54 -14.5q-25 0 -44.5 8.5t-33 22.5t-20.5 32t-7 38t7 39.5t21.5 34.5t36.5 24t53 9h206v-58h-203q-27 0 -39 -15t-12 -35q0 -19 12 -31.5t34 -12.5q19 0 31 12.5t16 27.5h45q8 -30 48 -30h68v-62h-64z" />
    <glyph glyph-name="uni0E48" unicode="&#xe48;" 
d="M-148 844v131h71v-131h-71z" />
    <glyph glyph-name="uni0E49" unicode="&#xe49;" 
d="M-159 844q-22 0 -32.5 13.5t-10.5 36.5v18q0 8 -2.5 12.5t-12.5 4.5h-49v60h81q26 0 37 -13.5t11 -40.5v-17q0 -14 14 -14h133v-60h-169z" />
    <glyph glyph-name="uni0E4A" unicode="&#xe4a;" 
d="M-128 844l-6 15q9 11 9 26q0 14 -8 22.5t-19 10.5l-46 -34l-45 32q-10 -1 -16 -10.5t-6 -20.5q0 -9 2 -19t8 -24h-66q-5 13 -6.5 26.5t-1.5 24.5q0 29 21 54t62 30l49 -42l46 43q37 -2 55.5 -22t18.5 -52v-9.5t-1 -9.5q20 9 27.5 27.5t7.5 44.5q0 23 -10 43h69
q2 -8 5 -17.5t3 -26.5q0 -20 -7.5 -40t-22.5 -36t-36.5 -26t-49.5 -10h-36z" />
    <glyph glyph-name="uni0E4B" unicode="&#xe4b;" 
d="M-81 908l2 -64h-66l2 64l-72 -2v53l72 -2l-2 64h66l-2 -64l72 2v-53z" />
    <glyph glyph-name="uni0E4C" unicode="&#xe4c;" 
d="M-96 814q-39 0 -39 -36v-21h-74v31q0 40 24.5 64t72.5 24h91v-62h-75z" />
    <glyph glyph-name="uni0E4D" unicode="&#xe4d;" 
d="M-117 622q-20 0 -37 7t-29.5 20t-20 30.5t-7.5 37.5t7.5 37.5t20 30.5t29.5 20.5t37 7.5q40 0 68 -27.5t28 -68.5t-28 -68t-68 -27zM-117 672q19 0 32 13t13 33t-13 32.5t-32 12.5q-17 0 -30 -12.5t-13 -32.5t13 -33t30 -13z" />
    <glyph glyph-name="uni0E4E" unicode="&#xe4e;" 
d="M-152 650q-12 -7 -25 -10t-31 -3q-19 0 -37 5t-32 15t-22.5 25.5t-8.5 37.5q0 18 6 33.5t19 26.5t33 16t47 2q-14 16 -14 36q0 19 17 34t52 15h56l13 -50h-55q-11 0 -17 -6.5t-6 -14.5q0 -19 25 -31l-14 -37q-14 4 -27.5 6t-28.5 2q-42 0 -42 -32q0 -15 12 -24t34 -9
q11 0 22 1t24 6v-44z" />
    <glyph glyph-name="uni0E4F" unicode="&#xe4f;" horiz-adv-x="546" 
d="M273 26q-44 0 -83 17t-68 46t-45.5 68t-16.5 83t16.5 83t45.5 68t68 45.5t83 16.5t83 -16.5t68 -45.5t45.5 -68t16.5 -83t-16.5 -83t-45.5 -68t-68 -46t-83 -17zM273 58q38 0 71 14t58 39t39 58t14 71q0 37 -14 70.5t-39 58t-58 39t-71 14.5t-71 -14.5t-57.5 -39t-39 -58
t-14.5 -70.5q0 -38 14.5 -71t39 -58t57.5 -39t71 -14zM273 119q-26 0 -48 9.5t-38.5 26t-26 38t-9.5 46.5q0 26 9.5 48t26 38.5t38.5 26t47 9.5t47.5 -9.5t39 -26t26 -38.5t9.5 -47q0 -26 -9.5 -48t-26 -38t-38.5 -25.5t-47 -9.5zM273 166q30 0 51 21t21 53q0 29 -21 50.5
t-52 21.5q-29 0 -51 -21.5t-22 -51.5q0 -29 21.5 -51t52.5 -22z" />
    <glyph glyph-name="uni0E50" unicode="&#xe50;" horiz-adv-x="635" 
d="M318 492q55 0 103.5 -17.5t85 -49.5t57.5 -78.5t21 -104.5t-21 -104.5t-57.5 -79t-85.5 -50t-104 -17.5t-103.5 17.5t-85 50t-57.5 79t-21 104.5t21 104.5t57.5 78.5t85 49.5t104.5 17.5zM317 54q40 0 76 13t62 37t41.5 59t15.5 79t-15.5 78.5t-41.5 58.5t-62 37t-76 13
t-75.5 -13t-61.5 -37t-41.5 -58.5t-15.5 -78.5t15.5 -79t41.5 -59t61.5 -37t75.5 -13z" />
    <glyph glyph-name="uni0E51" unicode="&#xe51;" horiz-adv-x="640" 
d="M269 -52h31q39 0 77.5 15.5t69 46t50 77t19.5 109.5q0 52 -14 95t-40 73.5t-64 47.5t-87 17q-43 0 -78.5 -13.5t-61 -38t-40 -57.5t-14.5 -72q0 -36 10.5 -64.5t29.5 -47.5t44 -29t55 -10q21 0 43 5t39 12q1 -14 2.5 -29.5t2.5 -29.5q-20 -11 -42 -16t-46 -5
q-42 0 -80 14t-66.5 41t-45 67t-16.5 93t19.5 97.5t54.5 77t84 50.5t108 18q65 0 116.5 -22t87 -61t54.5 -93t19 -118q0 -71 -23.5 -128.5t-64 -98t-94 -62.5t-114.5 -22h-32z" />
    <glyph glyph-name="uni0E52" unicode="&#xe52;" horiz-adv-x="745" 
d="M672 191q0 -42 -12 -77t-36 -60.5t-59 -39.5t-81 -14h-221q-46 0 -81 14t-59 39.5t-36 60.5t-12 77v369h74v-369q0 -66 32.5 -97t86.5 -31h211q54 0 87 31t33 97v127q0 53 -17.5 77.5t-53.5 28.5l-84 -66l-90 67q-29 -5 -44 -30.5t-15 -53.5q0 -38 24.5 -61.5t59.5 -34.5
l-20 -56q-60 11 -96 50t-36 100q0 66 35.5 105t94.5 48l87 -73l79 73q79 -8 114 -52.5t35 -124.5v-124z" />
    <glyph glyph-name="uni0E53" unicode="&#xe53;" horiz-adv-x="658" 
d="M300 183v147q0 45 -15 71.5t-54 26.5q-27 0 -46 -14t-31 -39t-17.5 -59.5t-5.5 -74.5q0 -89 27 -138.5t72 -49.5q26 0 49 10l15 -51q-27 -18 -67 -18q-38 0 -69.5 17.5t-53.5 50t-34 77.5t-12 101q0 55 10.5 101t31 79.5t51.5 52.5t72 19q47 0 73 -20t38 -52q15 32 42 52
t73 20q35 0 61 -12t42.5 -34t24.5 -51.5t8 -63.5v-331h-73v332q0 18 -2 35t-9 30.5t-20 22t-35 8.5q-42 0 -60.5 -26.5t-18.5 -71.5v-147h-67z" />
    <glyph glyph-name="uni0E54" unicode="&#xe54;" horiz-adv-x="605" 
d="M513 0q-47 0 -77 9.5t-55 35.5q-18 -23 -47 -38.5t-82 -15.5q-44 0 -81 17t-64 49t-42 77.5t-15 102.5q0 60 20.5 106t56 77t84 47t105.5 16h109q52 0 69.5 17.5t17.5 46.5v13h73v-13q0 -62 -37 -94.5t-112 -32.5h-119q-43 0 -78.5 -10.5t-61 -33t-40 -56.5t-14.5 -81
q0 -43 11.5 -77.5t31 -58.5t46 -37t56.5 -13q31 0 51 9t35 26q-11 17 -17 37.5t-6 43.5q0 60 35.5 93t87.5 33h66l-13 -61h-39q-29 0 -47.5 -20t-18.5 -54q0 -48 31 -73.5t89 -25.5h53l-13 -61h-49z" />
    <glyph glyph-name="uni0E55" unicode="&#xe55;" horiz-adv-x="605" 
d="M513 0q-47 0 -77.5 9t-54.5 35q-19 -23 -48 -38t-81 -15q-44 0 -81 17t-64 49t-42.5 77.5t-15.5 102.5q0 90 43 147t114 81q-12 19 -12 45q0 18 6.5 34.5t18.5 29t28.5 20t35.5 7.5t35.5 -7t28.5 -19.5t19 -29t7 -35.5q0 -14 -5 -27h56q52 0 69.5 17.5t17.5 46.5v13h73
v-13q0 -63 -37 -95.5t-111 -32.5h-120q-43 0 -78.5 -10.5t-61 -33t-40 -56.5t-14.5 -80q0 -43 11.5 -77.5t31.5 -59t46 -37.5t56 -13q31 0 51 9.5t36 25.5q-23 34 -23 82q0 60 35.5 93t87.5 33h66l-14 -61h-38q-29 0 -48 -20.5t-19 -53.5q0 -49 31 -74t90 -25h53l-13 -61
h-49zM283 471q17 0 28 11.5t11 28.5t-11 28.5t-28 11.5q-16 0 -27 -11.5t-11 -28.5t11 -28.5t27 -11.5z" />
    <glyph glyph-name="uni0E56" unicode="&#xe56;" horiz-adv-x="613" 
d="M164 231q-11 -11 -17.5 -29.5t-6.5 -34.5q0 -21 10 -41.5t30 -36t49.5 -25.5t68.5 -10q49 0 85 14.5t60 40t35.5 61t11.5 77.5q0 40 -12.5 74t-35 58.5t-54.5 38t-71 13.5q-64 0 -102.5 -23.5t-64.5 -60.5h-60l-77 222h73l52 -159q31 37 78 59.5t106 22.5q51 0 95.5 -18
t76.5 -51t50.5 -78.5t18.5 -99.5q0 -51 -15 -97t-47 -81t-82 -55.5t-120 -20.5q-54 0 -96.5 13.5t-72 37.5t-45 57.5t-15.5 72.5q0 30 11.5 56.5t27.5 42.5z" />
    <glyph glyph-name="uni0E57" unicode="&#xe57;" horiz-adv-x="801" 
d="M281 300v52q0 32 -11 54t-43 22q-26 0 -44 -14t-29.5 -39t-17 -59.5t-5.5 -74.5q0 -89 28.5 -138.5t70.5 -49.5q27 0 49 10l15 -51q-14 -10 -30.5 -14t-36.5 -4q-38 0 -69.5 17.5t-53.5 50t-34 77.5t-12 101q0 55 11 101t32 79.5t51 52.5t69 19q42 0 63 -18t30 -50
q14 32 40.5 50t68.5 18q28 0 49.5 -12t35.5 -34t21.5 -51.5t7.5 -63.5v-273h25q41 0 66 26.5t25 79.5v396h73v-385q0 -78 -41 -126.5t-124 -48.5h-96v332q0 18 -1.5 35t-7.5 30.5t-17.5 22t-31.5 8.5q-29 0 -45.5 -21.5t-16.5 -54.5v-52h-64z" />
    <glyph glyph-name="uni0E58" unicode="&#xe58;" horiz-adv-x="632" 
d="M295 419q-75 0 -113.5 -39.5t-38.5 -103.5v-119q0 -39 23 -66.5t58 -28.5l111 109l119 -107q34 10 52.5 37.5t18.5 64.5q0 41 -24 67t-59 32l24 56q28 -3 51.5 -17.5t40.5 -36.5t27 -49t10 -55q0 -34 -13 -63.5t-34.5 -52t-49 -36.5t-55.5 -15l-108 99l-94 -99
q-76 2 -123.5 42.5t-47.5 116.5v127q0 41 15.5 77.5t44 64t69 43.5t90.5 16h126q52 0 69.5 17.5t17.5 46.5v13h73v-13q0 -63 -37 -95.5t-112 -32.5h-131z" />
    <glyph glyph-name="uni0E59" unicode="&#xe59;" horiz-adv-x="616" 
d="M441 0l-119 340q-14 39 -33.5 63.5t-58.5 24.5q-26 0 -46.5 -13.5t-35 -38.5t-22.5 -59t-8 -74q0 -45 9 -80.5t24 -60.5t34.5 -38.5t40.5 -13.5q13 0 29.5 4.5t29.5 12.5l15 -51q-16 -11 -35.5 -17.5t-41.5 -6.5q-36 0 -68.5 16.5t-57 48.5t-38.5 78.5t-14 106.5
q0 55 13.5 101t37.5 79t57.5 51.5t72.5 18.5q28 0 48.5 -6t36 -16.5t26 -24.5t19.5 -30q0 39 22 58t54 19q33 0 54 -16.5t32 -42.5l23 127h65l-38 -200h-54q-8 30 -24 52t-42 22q-29 0 -44 -23t-15 -52l123 -359h-71z" />
    <glyph glyph-name="uni0E5B" unicode="&#xe5b;" horiz-adv-x="1135" 
d="M1113 191q-24 -8 -44.5 -11.5t-38.5 -3.5q-45 0 -77 26t-53 74l-45 -153h-33l-69 191l-62 -209h-35l-64 189q-14 -50 -40.5 -94.5t-63.5 -77.5t-83.5 -52t-98.5 -19q-53 0 -97.5 18t-77 50t-51 75.5t-18.5 93.5q0 48 15 88.5t42 70.5t66 46.5t87 16.5q40 0 73 -15.5
t56.5 -41.5t36.5 -59t15 -69h-60q-5 54 -37 91t-86 37q-35 0 -62 -14t-45 -37t-27.5 -53t-9.5 -61q0 -39 14 -71.5t38 -55.5t57 -36t71 -13q64 0 110 32t77 80t47 105t19 108h40l75 -222l57 201h40l65 -190l51 168h32q11 -76 40.5 -121.5t79.5 -45.5q29 0 56 10z" />
    <glyph glyph-name="endash" unicode="&#x2013;" horiz-adv-x="512" 
d="M480 282v-53h-448v53h448z" />
    <glyph glyph-name="emdash" unicode="&#x2014;" horiz-adv-x="989" 
d="M917 282v-53h-845v53h845z" />
    <glyph glyph-name="quoteleft" unicode="&#x2018;" horiz-adv-x="208" 
d="M149 679q-8 -14 -15 -31t-12 -33.5t-7.5 -31.5t-2.5 -25q0 -15 10 -15q38 0 38 -44q0 -21 -12.5 -33.5t-36.5 -12.5t-37.5 14t-13.5 43q0 19 5 42.5t13.5 47.5t19.5 46t22 39z" />
    <glyph glyph-name="quoteright" unicode="&#x2019;" horiz-adv-x="207" 
d="M58 460q15 28 26 62.5t11 55.5q0 17 -10 17q-37 0 -37 44q0 20 12 33.5t36 13.5t37.5 -14.5t13.5 -43.5v-4q-1 -19 -6.5 -42t-13.5 -46t-18.5 -45t-20.5 -38q-8 2 -15 3.5t-15 3.5z" />
    <glyph glyph-name="quotesinglbase" unicode="&#x201a;" horiz-adv-x="207" 
d="M58 -111q7 14 14 30.5t12 32.5t8 30.5t3 24.5q0 17 -10 17q-37 0 -37 44q0 21 12 33.5t36 12.5t37.5 -14t13.5 -43v-5q-1 -19 -6.5 -41.5t-13.5 -46t-18.5 -44.5t-20.5 -37l-30 6v0z" />
    <glyph glyph-name="quotedblleft" unicode="&#x201c;" horiz-adv-x="363" 
d="M305 678q-8 -14 -15 -31t-12 -33.5t-8 -31.5t-3 -25q0 -15 11 -15q37 0 37 -44q0 -21 -12.5 -33.5t-36.5 -12.5q-50 0 -50 57q0 19 5 42.5t13.5 47.5t19 46t21.5 39zM149 678q-8 -14 -15 -31t-12 -33.5t-7.5 -31.5t-2.5 -25q0 -15 10 -15q37 0 37 -44q0 -21 -12 -33.5
t-36 -12.5t-37.5 14t-13.5 43q0 19 5 42.5t13.5 47.5t19 46t21.5 39z" />
    <glyph glyph-name="quotedblright" unicode="&#x201d;" horiz-adv-x="363" 
d="M58 460q15 28 26 62.5t11 55.5q0 17 -10 17q-37 0 -37 44q0 20 12 33.5t36 13.5t37.5 -14.5t13.5 -43.5v-4q-1 -19 -6.5 -42t-13.5 -46t-18.5 -45t-20.5 -38q-8 2 -15 3.5t-15 3.5zM213 460q8 14 15 31t12 33.5t8 31t3 25.5q0 14 -11 14q-37 0 -37 44q0 20 13 33.5
t36 13.5q24 0 37.5 -14.5t13.5 -43.5q0 -18 -5.5 -41.5t-14 -47.5t-19 -47t-21.5 -39z" />
    <glyph glyph-name="quotedblbase" unicode="&#x201e;" horiz-adv-x="363" 
d="M58 -111q7 14 14 30.5t12 32.5t8 30.5t3 24.5q0 17 -10 17q-37 0 -37 44q0 21 12 33.5t36 12.5t37.5 -14t13.5 -43v-5q-1 -19 -6.5 -41.5t-13.5 -46t-18.5 -44.5t-20.5 -37zM213 -111q16 29 27 64.5t11 55.5q0 15 -11 15q-37 0 -37 44q0 21 12.5 33.5t36.5 12.5t37.5 -14
t13.5 -43q0 -19 -5 -42.5t-13.5 -47.5t-19.5 -46t-22 -38z" />
    <glyph glyph-name="dagger" unicode="&#x2020;" horiz-adv-x="538" 
d="M305 674v-194h171v-58h-171v-422h-72v422h-171v58h171v194h72z" />
    <glyph glyph-name="daggerdbl" unicode="&#x2021;" horiz-adv-x="538" 
d="M233 -50v194h-171v58h171v220h-171v58h171v194h72v-194h171v-58h-171v-220h171v-58h-171v-194h-72z" />
    <glyph glyph-name="bullet" unicode="&#x2022;" horiz-adv-x="306" 
d="M254 346q0 -41 -25.5 -71t-76.5 -30q-50 0 -75 29t-25 70q0 42 25 71t76 29t76 -29t25 -69z" />
    <glyph glyph-name="ellipsis" unicode="&#x2026;" horiz-adv-x="708" 
d="M62 46q0 23 14 39t42 16q27 0 41.5 -16t14.5 -39t-14.5 -39t-41.5 -16q-28 0 -42 16t-14 39zM298 46q0 23 14 39t42 16q27 0 41.5 -16t14.5 -39t-14.5 -39t-41.5 -16q-28 0 -42 16t-14 39zM534 46q0 23 14 39t42 16q27 0 41.5 -16t14.5 -39t-14.5 -39t-41.5 -16
q-28 0 -42 16t-14 39z" />
    <glyph glyph-name="perthousand" unicode="&#x2030;" horiz-adv-x="1117" 
d="M535 660h63l-366 -660h-63zM105 484q0 -24 4.5 -47t14 -40.5t24.5 -28t36 -10.5t36.5 10.5t25 28t14 40t4.5 46.5t-4.5 47t-14 41t-25 28.5t-36.5 10.5t-36 -11t-24.5 -28.5t-14 -40t-4.5 -46.5zM44 484q0 35 9 66.5t27 55.5t44 38.5t60 14.5t60 -14.5t44 -38.5t27 -55.5
t9 -66.5t-9 -66.5t-27 -55.5t-44 -38.5t-60 -14.5t-60 14.5t-44 38.5t-27 55.5t-9 66.5zM504 166q0 -24 4.5 -47t14 -40.5t24.5 -28t36 -10.5t36.5 10.5t25 28t14 40t4.5 46.5t-4.5 47t-14 41t-25 28.5t-36.5 10.5t-36 -11t-24.5 -28.5t-14 -40t-4.5 -46.5zM443 166
q0 35 9 66.5t27 55.5t44 38.5t60 14.5t60.5 -14.5t44.5 -38.5t27 -55.5t9 -66.5t-9 -66.5t-27 -55.5t-44.5 -38.5t-60.5 -14.5t-60 14.5t-44 38.5t-27 55.5t-9 66.5zM853 166q0 -24 4.5 -47t14 -40.5t25 -28t36.5 -10.5t36 10.5t25 28t14.5 40t4.5 46.5t-4.5 47t-14.5 41
t-25 28.5t-36 10.5t-36.5 -11t-25 -28.5t-14 -40t-4.5 -46.5zM793 166q0 35 9 66.5t27 55.5t44 38.5t60 14.5t60 -14.5t44 -38.5t27 -55.5t9 -66.5t-9 -66.5t-27 -55.5t-44 -38.5t-60 -14.5t-60 14.5t-44 38.5t-27 55.5t-9 66.5z" />
    <glyph glyph-name="guilsinglleft" unicode="&#x2039;" horiz-adv-x="273" 
d="M102 242l129 -180h-61q-33 45 -65.5 90t-64.5 90l130 179h61z" />
    <glyph glyph-name="guilsinglright" unicode="&#x203a;" horiz-adv-x="272" 
d="M41 421h61l130 -179l-130 -180h-61l129 180z" />
    <glyph glyph-name="fraction" unicode="&#x2044;" horiz-adv-x="429" 
d="M359 660h62l-366 -660h-62z" />
    <glyph glyph-name="Euro" unicode="&#x20ac;" horiz-adv-x="565" 
d="M45 243q6 23 14 45h65q-2 12 -2 24v25q0 9 0.5 18.5t1.5 20.5h-79l14 45h70q9 56 30 104t53.5 83t75 55t95.5 20q49 0 80.5 -14.5t57.5 -37.5q-5 -16 -10 -31.5t-10 -30.5q-22 21 -50 33t-63 12q-76 0 -122.5 -52.5t-61.5 -140.5h227q-4 -11 -7 -22.5t-7 -22.5h-218
q-1 -10 -1 -19.5v-19.5v-25.5t2 -23.5h231q-4 -11 -7 -22.5t-7 -22.5h-210q17 -86 65.5 -135t120.5 -49q35 0 64 12t52 33q5 -15 10 -30.5t10 -31.5q-26 -24 -58 -37.5t-83 -13.5t-93.5 18.5t-75.5 52t-56 79.5t-33 102h-85v0z" />
    <glyph glyph-name="afii61289" unicode="&#x2113;" horiz-adv-x="394" 
d="M190 153q0 -54 13.5 -75.5t49.5 -21.5q29 0 52 10l18 -57q-13 -7 -31 -12t-41 -5q-76 0 -105.5 39t-29.5 123v38q-17 -13 -37.5 -25.5t-41.5 -26.5l-25 38q27 16 53 34t51 40v222q0 112 34 167t95 55q52 0 84.5 -37.5t32.5 -114.5q0 -94 -43 -170.5t-129 -139.5v-81z
M190 302q57 49 79 109.5t22 132.5q0 54 -12 76t-33 22q-14 0 -24.5 -8t-17.5 -27.5t-10.5 -52t-3.5 -80.5v-172z" />
    <glyph glyph-name="trademark" unicode="&#x2122;" horiz-adv-x="774" 
d="M186 629v-334h-53v334l-113 -1v46h281v-46zM545 403q5 17 12 34t13 31l90 206h64v-379h-53v230q0 17 1.5 35.5t2.5 33.5q-6 -11 -11.5 -27t-14.5 -36l-77 -173h-56l-77 173q-9 20 -14.5 36t-8.5 27h-3q2 -15 3 -33.5t1 -35.5v-230h-53v379h64l90 -206q6 -14 13 -31
t12 -34h2z" />
    <glyph glyph-name="Omega" unicode="&#x2126;" horiz-adv-x="745" 
d="M374 613q-107 0 -168 -63.5t-61 -181.5q0 -56 18 -105t44.5 -90t56.5 -72.5t55 -50.5v-50h-212v66h125q-23 21 -51 51.5t-53 70t-41.5 88.5t-16.5 107q0 68 21 123.5t60 94.5t95 60.5t126 21.5t126 -21.5t95.5 -60.5t60.5 -94.5t21 -123.5q0 -58 -17 -107t-41.5 -88.5
t-53 -70t-51.5 -51.5h125v-66h-212v50q25 19 55 50.5t56.5 72.5t44.5 90t18 105q0 118 -60.5 181.5t-164.5 63.5z" />
    <glyph glyph-name="estimated" unicode="&#x212e;" horiz-adv-x="818" 
d="M782 309h-610v-183q9 -11 31.5 -30t54 -37t70.5 -31.5t80 -13.5q43 0 81.5 12t69.5 29t53.5 36.5t33.5 34.5h72q-57 -69 -139 -104t-170 -35q-77 0 -145 24.5t-118.5 69t-80 106.5t-29.5 136q0 73 29.5 135t80 106.5t118.5 69.5t145 25t145 -24.5t118.5 -68.5t80 -104
t29.5 -131v-22zM646 519q-11 15 -33.5 34.5t-54 37t-69.5 29t-81 11.5q-41 0 -80 -13.5t-70.5 -31.5t-54 -37t-31.5 -30v-182h474v182z" />
    <glyph glyph-name="partialdiff" unicode="&#x2202;" horiz-adv-x="593" 
d="M298 366q-43 0 -77 -18t-57 -47.5t-35.5 -66.5t-12.5 -75q0 -51 27.5 -78.5t77.5 -27.5q34 0 68 16.5t63.5 46.5t52.5 73t37 97q-20 31 -55.5 55.5t-88.5 24.5zM340 597q-37 0 -67.5 -8t-58.5 -23l-9 57q27 16 66 26t78 10q97 0 147.5 -54.5t50.5 -154.5
q0 -45 -9.5 -96.5t-28 -102.5t-46.5 -98t-64 -83t-81 -57.5t-98 -21.5q-93 0 -136.5 46t-43.5 121q0 50 19 98.5t53 87t81 62t104 23.5q34 0 60.5 -8t46 -20t33.5 -27t22 -29q7 29 10 55.5t3 50.5q0 71 -34 108.5t-98 37.5z" />
    <glyph glyph-name="Delta" unicode="&#x2206;" horiz-adv-x="622" 
d="M310 551l-185 -491h369zM589 0h-557l263 674h30z" />
    <glyph glyph-name="product" unicode="&#x220f;" horiz-adv-x="607" 
d="M90 674h427v-722h-76v652h-275v-652h-76v722z" />
    <glyph glyph-name="summation" unicode="&#x2211;" horiz-adv-x="542" 
d="M40 -49v35l258 330l-239 319v39h421v-57h-330l224 -300l-240 -309h366v-57h-460z" />
    <glyph glyph-name="minus" unicode="&#x2212;" horiz-adv-x="566" 
d="M491 314v-61h-416v61h416z" />
    <glyph glyph-name="radical" unicode="&#x221a;" horiz-adv-x="519" 
d="M20 356v58h128l101 -345l171 605h67l-198 -686h-76l-111 368h-82z" />
    <glyph glyph-name="infinity" unicode="&#x221e;" horiz-adv-x="761" 
d="M352 309q-28 43 -64.5 68t-77.5 25q-46 0 -70 -27t-24 -65q0 -44 27 -70t69 -26t78 28.5t62 66.5zM644 310q0 38 -23 65t-72 27q-44 0 -76.5 -24.5t-64.5 -68.5q28 -45 64 -70t78 -25q24 0 41.5 8t29.5 21.5t17.5 30.5t5.5 36zM706 311q0 -31 -10.5 -58t-30.5 -46.5
t-48 -31t-62 -11.5q-55 0 -99.5 29t-73.5 72h-2q-32 -41 -75 -71t-99 -30q-33 0 -60.5 10.5t-47.5 29t-31.5 45.5t-11.5 60q0 32 11 58.5t31.5 45.5t48.5 29.5t61 10.5q58 0 100.5 -30t71.5 -70h2q12 16 28.5 33.5t38 32.5t48 24.5t57.5 9.5q33 0 61 -10.5t48.5 -29.5
t32 -45t11.5 -57z" />
    <glyph glyph-name="integral" unicode="&#x222b;" horiz-adv-x="425" 
d="M249 129q0 -45 -6.5 -79t-21.5 -57t-41 -34.5t-65 -11.5q-23 0 -41 5t-32 12l19 57q23 -10 51 -10q39 0 51 25t12 79v385q0 90 28 136.5t106 46.5q23 0 41 -5t32 -12l-18 -58q-23 10 -52 10q-39 0 -51 -25t-12 -79v-385z" />
    <glyph glyph-name="approxequal" unicode="&#x2248;" horiz-adv-x="566" 
d="M513 402q-20 -37 -54 -66t-79 -29q-36 0 -61 12t-45.5 26.5t-40 26.5t-43.5 12q-38 0 -60.5 -20.5t-39.5 -46.5l-36 38q8 16 21 33t30 30.5t38 22t45 8.5q36 0 60.5 -12t44.5 -26t39.5 -26t45.5 -12q35 0 59 20t40 46zM513 220q-20 -37 -54 -66t-79 -29q-36 0 -61 12
t-45.5 26.5t-40 26.5t-43.5 12q-38 0 -61 -20.5t-39 -46.5l-36 38q8 16 21 33t30 30.5t38 22t45 8.5q36 0 60.5 -12t44.5 -26t39.5 -26t45.5 -12q35 0 59 20t40 46z" />
    <glyph glyph-name="notequal" unicode="&#x2260;" horiz-adv-x="566" 
d="M359 408h121v-61h-145l-50 -123h195v-61h-219l-64 -163h-58l65 163h-126v61h150l49 123h-199v61h223l68 170h58z" />
    <glyph glyph-name="lessequal" unicode="&#x2264;" horiz-adv-x="566" 
d="M65 349l421 231v-71l-345 -184l345 -185v-71l-421 231v49zM486 50v-50h-421v50h421z" />
    <glyph glyph-name="greaterequal" unicode="&#x2265;" horiz-adv-x="566" 
d="M501 50v-50h-421v50h421zM501 300l-421 -231v71l345 185l-345 184v71l421 -231v-49z" />
    <glyph glyph-name="lozenge" unicode="&#x25ca;" horiz-adv-x="583" 
d="M469 342l-178 265l-180 -265l180 -266zM542 342l-229 -342h-44l-229 341l229 343h44z" />
    <glyph glyph-name="uni0E10.alt1" unicode="&#xf700;" horiz-adv-x="538" 
d="M180 0l-56 231q-5 23 -27 23h-38v65h44q40 0 61.5 -15.5t30.5 -57.5l42 -181h14q31 0 60 15.5t51.5 45t36 73.5t13.5 101q0 103 -45.5 153.5t-131.5 50.5q-59 0 -108 -20t-85 -50l-24 59q40 32 96.5 54t119.5 22q74 0 130 -31l53 61h86l-85 -101q35 -36 52.5 -86.5
t17.5 -112.5q0 -66 -18 -120.5t-50.5 -94.5t-77.5 -62t-99 -22h-63z" />
    <glyph glyph-name="uni0E34.alt1" unicode="&#xf701;" 
d="M-581 638v62h375v-62h-375z" />
    <glyph glyph-name="uni0E35.alt1" unicode="&#xf702;" 
d="M-581 638v62h303v94h72v-156h-375z" />
    <glyph glyph-name="uni0E36.alt1" unicode="&#xf703;" 
d="M-284 638h-297v62h230q-5 10 -5 22q0 36 24.5 61t59.5 25t59.5 -25t24.5 -61q0 -35 -24.5 -59.5t-59.5 -24.5h-12zM-272 687q15 0 25 10.5t10 25.5q0 16 -10 26t-25 10q-14 0 -24.5 -10t-10.5 -26q0 -15 10.5 -25.5t24.5 -10.5z" />
    <glyph glyph-name="uni0E37.alt1" unicode="&#xf704;" 
d="M-581 638v62h195v94h64v-96h52v96h64v-156h-375z" />
    <glyph glyph-name="uni0E48.alt1" unicode="&#xf705;" 
d="M-346 638v163h74v-163h-74z" />
    <glyph glyph-name="uni0E49.alt1" unicode="&#xf706;" 
d="M-351 638q-26 0 -36 15.5t-10 39.5v20q0 11 -3.5 15.5t-15.5 4.5h-52v62h78q32 0 45.5 -14.5t13.5 -45.5v-19q0 -7 3 -11.5t14 -4.5h134v-62h-171z" />
    <glyph glyph-name="uni0E4A.alt1" unicode="&#xf707;" 
d="M-345 638l-6 15q10 13 10 31q0 34 -30 37q-11 -9 -22.5 -18.5t-23.5 -18.5l-43 36q-14 -2 -22 -12.5t-8 -23.5q0 -12 1.5 -23t7.5 -25h-68q-5 12 -7 28t-2 28q0 32 23 59t68 33l50 -48l50 49q38 -3 59 -24.5t21 -59.5q0 -5 -0.5 -10.5t-1.5 -10.5q23 12 30.5 32t7.5 45
q0 18 -3 30.5t-8 22.5h74q3 -9 6 -20t3 -31q0 -23 -8 -44.5t-23.5 -38.5t-38.5 -27.5t-52 -10.5h-44z" />
    <glyph glyph-name="uni0E4B.alt1" unicode="&#xf708;" 
d="M-285 715l3 -77h-71l3 77l-83 -2v56l83 -2l-3 77h71l-3 -77l86 2v-56z" />
    <glyph glyph-name="uni0E4C.alt1" unicode="&#xf709;" 
d="M-284 700q-46 0 -46 -41v-23h-80v34q0 44 26 69.5t78 25.5h100v-65h-78z" />
    <glyph glyph-name="uni0E48.alt2" unicode="&#xf70a;" 
d="M-151 638v163h74v-163h-74z" />
    <glyph glyph-name="uni0E49.alt2" unicode="&#xf70b;" 
d="M-184 638q-26 0 -36 15.5t-10 39.5v20q0 11 -3.5 15.5t-15.5 4.5h-52v62h78q27 0 43 -12t16 -39v-28q0 -7 3 -11.5t14 -4.5h139v-62h-176z" />
    <glyph glyph-name="uni0E4A.alt2" unicode="&#xf70c;" 
d="M-161 638l-7 15q10 13 10 31q0 34 -29 37l-50 -37l-47 36q-14 -2 -22 -12.5t-8 -23.5q0 -12 1.5 -23t7.5 -25h-68q-5 12 -7 28t-2 28q0 32 23 59t68 33l54 -48l53 49q38 -3 59.5 -24.5t21.5 -59.5q0 -5 -0.5 -10.5t-1.5 -10.5q23 12 34 32t11 45q0 18 -3 30.5t-8 22.5h73
q3 -9 6 -20t3 -31q0 -23 -9 -44.5t-26 -38.5t-40.5 -27.5t-53.5 -10.5h-43z" />
    <glyph glyph-name="uni0E4B.alt2" unicode="&#xf70d;" 
d="M-84 715l4 -77h-71l3 77l-83 -2v56l83 -2l-3 77h71l-4 -77l85 2v-56z" />
    <glyph glyph-name="uni0E4C.alt2" unicode="&#xf70e;" 
d="M-103 700q-46 0 -46 -41v-23h-80v34q0 44 26 69.5t78 25.5h102v-65h-80z" />
    <glyph glyph-name="uni0E0D.alt1" unicode="&#xf70f;" horiz-adv-x="919" 
d="M842 187q0 -51 -15 -88t-42 -61t-65.5 -35.5t-85.5 -11.5t-86 11.5t-66.5 35.5t-42.5 61t-15 88v166q0 74 -34.5 112.5t-103.5 38.5q-53 0 -95.5 -26.5t-60.5 -68.5q20 -19 40 -37t41 -37q-57 -26 -57 -90v-154q0 -28 26 -28h54v-63h-73q-39 0 -61 23.5t-22 61.5v149
q0 32 14.5 59t41.5 40q-21 17 -42 35l-42 36q9 31 30 61t52 53t70 37t84 14q54 0 94 -16t67 -45t40 -68.5t13 -86.5v-166q0 -131 133 -131q69 0 101 33t32 98v373h76v-373z" />
    <glyph glyph-name="uni0E31.alt1" unicode="&#xf710;" 
d="M-331 638q-95 0 -95 85v39h72v-30q0 -32 32 -32h219v-62h-228z" />
    <glyph glyph-name="uni0E4D.alt1" unicode="&#xf711;" 
d="M-317 622q-20 0 -37 7t-29.5 20t-20 30.5t-7.5 37.5t7.5 37.5t20 30.5t29.5 20.5t37 7.5q40 0 68 -27.5t28 -68.5t-28 -68t-68 -27zM-317 672q19 0 32 13t13 33t-13 32.5t-32 12.5q-17 0 -30 -12.5t-13 -32.5t13 -33t30 -13z" />
    <glyph glyph-name="uni0E47.alt1" unicode="&#xf712;" 
d="M-272 638q-24 0 -44 12.5t-29 34.5q-7 -22 -28 -36.5t-54 -14.5q-25 0 -44.5 8.5t-33 22.5t-20.5 32t-7 38t7 39.5t21.5 34.5t36.5 24t53 9h206v-58h-203q-27 0 -39 -15t-12 -35q0 -19 12 -31.5t34 -12.5q19 0 31 12.5t16 27.5h45q8 -30 48 -30h68v-62h-64z" />
    <glyph glyph-name="uni0E48.alt3" unicode="&#xf713;" 
d="M-276 844v131h71v-131h-71z" />
    <glyph glyph-name="uni0E49.alt3" unicode="&#xf714;" 
d="M-297 844q-22 0 -32.5 13.5t-10.5 36.5v18q0 8 -2.5 12.5t-12.5 4.5h-49v60h81q26 0 37 -13.5t11 -40.5v-17q0 -14 14 -14h133v-60h-169z" />
    <glyph glyph-name="uni0E4A.alt3" unicode="&#xf715;" 
d="M-256 844l-6 15q9 11 9 26q0 14 -8 22.5t-19 10.5l-46 -34l-45 32q-10 -1 -16 -10.5t-6 -20.5q0 -9 2 -19t8 -24h-66q-5 13 -6.5 26.5t-1.5 24.5q0 29 21 54t62 30l49 -42l46 43q37 -2 55.5 -22t18.5 -52v-9.5t-1 -9.5q20 9 27.5 27.5t7.5 44.5q0 23 -10 43h69
q2 -8 5 -17.5t3 -26.5q0 -20 -7.5 -40t-22.5 -36t-36.5 -26t-49.5 -10h-36z" />
    <glyph glyph-name="uni0E4B.alt3" unicode="&#xf716;" 
d="M-210 908l2 -64h-66l2 64l-72 -2v53l72 -2l-2 64h66l-2 -64l72 2v-53z" />
    <glyph glyph-name="uni0E4C.alt3" unicode="&#xf717;" 
d="M-224 814q-39 0 -39 -36v-21h-74v31q0 40 24.5 64t72.5 24h91v-62h-75z" />
    <glyph glyph-name="uni0E38.alt1" unicode="&#xf718;" 
d="M-151 -407v87q0 23 -22 23h-37v63h57q39 0 57.5 -18.5t18.5 -61.5v-93h-74z" />
    <glyph glyph-name="uni0E39.alt1" unicode="&#xf719;" 
d="M-201 -417q-61 0 -92 26t-31 76v20h-52v61h123v-65q0 -35 11.5 -49t40.5 -14t40.5 14t11.5 49v65h72v-81q0 -50 -31.5 -76t-92.5 -26z" />
    <glyph glyph-name="uni0E3A.alt1" unicode="&#xf71a;" 
d="M-59 -288q0 -24 -17.5 -41.5t-43.5 -17.5q-24 0 -42 17.5t-18 41.5t18 41.5t42 17.5q26 0 43.5 -17.5t17.5 -41.5z" />
    <glyph glyph-name="uni0E0E.alt1" unicode="&#xf71b;" horiz-adv-x="609" 
d="M456 353q0 74 -38.5 112.5t-111.5 38.5q-60 0 -105 -27.5t-62 -68.5l93 -79q-58 -25 -58 -90v-155q0 -39 -22.5 -61.5t-60.5 -22.5h-59v63h41q14 0 19.5 7t5.5 20v139q0 31 15 58t41 40l-96 75q9 31 31 61.5t54.5 53.5t74 37.5t88.5 14.5q56 0 98 -16t70.5 -45t43 -68.5
t14.5 -86.5v-533h-93q-26 23 -60 40t-79 17q-49 0 -83 -15t-66 -41q-5 14 -10 29l-10 30q28 26 67.5 44t93.5 18q48 0 93 -20.5t71 -48.5v480z" />
    <glyph glyph-name="uni0E0F.alt1" unicode="&#xf71c;" horiz-adv-x="609" 
d="M532 -180h-73l-123 74q-16 -37 -50.5 -58.5t-72.5 -21.5q-37 0 -70 9t-53 23l10 32l10 32q20 -14 47.5 -24.5t50.5 -10.5q42 0 72 28.5t39 71.5l137 -82v460q0 74 -38.5 112.5t-111.5 38.5q-60 0 -105 -27.5t-62 -68.5l71 -57l22 -22q-58 -25 -58 -90v-155
q0 -39 -22.5 -61.5t-60.5 -22.5h-59v63h41q14 0 19.5 7t5.5 20v139q0 31 15 58t41 40q-24 19 -47.5 37.5t-48.5 37.5q9 31 31 61.5t54.5 53.5t74 37.5t88.5 14.5q56 0 98 -16t70.5 -45t43 -68.5t14.5 -86.5v-533z" />
    <glyph glyph-name="uni0E2C.alt1" unicode="&#xf71d;" horiz-adv-x="655" 
d="M502 346q0 42 -18.5 62.5t-49.5 20.5h-20q-3 8 -5.5 16t-5.5 16q27 34 54 68.5t54 69.5h83q-28 -33 -55.5 -66t-56.5 -65q45 -6 69.5 -39.5t24.5 -81.5v-347h-82l-137 265q-12 23 -20 45.5t-10 33.5h-2q-3 -11 -11 -33.5t-19 -45.5l-134 -265h-82v560h74v-325
q0 -41 -1.5 -77t-6.5 -73h1q9 31 18.5 58t22.5 52l108 208h61l111 -207q14 -25 24 -55t18 -56h2q-5 37 -7 73t-2 77v111z" />
    <glyph glyph-name="uni0E33.alt1" horiz-adv-x="467" 
d="M-317 622q-20 0 -37 7t-29.5 20t-20 30.5t-7.5 37.5t7.5 37.5t20 30.5t29.5 20.5t37 7.5q40 0 68 -27.5t28 -68.5t-28 -68t-68 -27zM-317 672q19 0 32 13t13 33t-13 32.5t-32 12.5q-17 0 -30 -12.5t-13 -32.5t13 -33t30 -13zM314 0v363q0 72 -30.5 106.5t-91.5 34.5
q-48 0 -90.5 -17.5t-71.5 -40.5l-20 57q15 12 35.5 24t45 21t52 15t54.5 6q97 0 145 -54t48 -152v-363h-76z" />
    <glyph glyph-name="uni0E4E.alt1" 
d="M-252 650q-12 -7 -25 -10t-31 -3q-19 0 -37 5t-32 15t-22.5 25.5t-8.5 37.5q0 18 6 33.5t19 26.5t33 16t48 2q-14 14 -14 36q0 19 16.5 34t52.5 15h56l12 -50h-55q-11 0 -16.5 -6.5t-5.5 -14.5q0 -19 24 -31l-14 -37q-14 4 -27.5 6t-28.5 2q-42 0 -42 -32q0 -15 12 -24
t34 -9q11 0 22 1t24 6v-44z" />
    </font>
</defs>
</svg>
