<?xml version="1.0" standalone="no"?>
<!DOCTYPE svg PUBLIC "-//W3C//DTD SVG 1.1//EN" "http://www.w3.org/Graphics/SVG/1.1/DTD/svg11.dtd" >
<svg xmlns="http://www.w3.org/2000/svg" xmlns:xlink="http://www.w3.org/1999/xlink" version="1.1">
<metadata>
Created by FontForge 20201107 at Thu May 16 07:11:20 2013
 By 
Copyright (c) 2009, 2013 Cadson Demak Co. Ltd., Thailand. All Rights Reserved.
</metadata>
<defs>
<font id="SukhumvitSet-Bold" horiz-adv-x="0" >
  <font-face 
    font-family="Sukhumvit Set"
    font-weight="700"
    font-stretch="normal"
    units-per-em="1000"
    panose-1="2 0 5 6 0 0 0 2 0 4"
    ascent="800"
    descent="-200"
    x-height="483"
    cap-height="674"
    bbox="-657 -474 1144 1103"
    underline-thickness="50"
    underline-position="-125"
    unicode-range="U+000D-FB02"
  />
<missing-glyph horiz-adv-x="515" 
d="M60 0v673h395v-673h-395zM122 63h270v548h-270v-548z" />
    <glyph glyph-name="uni0E5A" unicode="&#xe2f;&#xe2f;" horiz-adv-x="811" 
d="M361 0v383q-20 -36 -60 -60t-91 -24q-43 0 -76.5 15t-56.5 42t-35 63.5t-12 79.5v61h128v-61q0 -52 20 -75t52 -23q25 0 49 8.5t43 25t30 39.5t11 53v33h128v-169q24 1 47 11.5t41 28.5t28.5 42.5t10.5 53.5v33h128v-560h-130v383q-17 -32 -50 -58.5t-75 -33.5v-291h-130
z" />
    <glyph glyph-name="uni0E4F.liga" unicode="&#xe4f;&#x22;" horiz-adv-x="546" 
d="M273 26q-44 0 -83 17t-68 46t-45.5 68t-16.5 83t16.5 83t45.5 68t68 45.5t83 16.5t83 -16.5t68 -45.5t45.5 -68t16.5 -83t-16.5 -83t-45.5 -68t-68 -46t-83 -17zM273 71q35 0 66 13t54 36t36 54t13 66t-13 65.5t-36 53.5t-54 36.5t-66 13.5t-65.5 -13.5t-53.5 -36.5
t-36.5 -53.5t-13.5 -65.5t13.5 -66t36.5 -54t53.5 -36t65.5 -13zM273 117q-26 0 -48.5 9.5t-39.5 26t-26.5 39t-9.5 47.5q0 26 10 49t26.5 39.5t39 26t47.5 9.5q26 0 48.5 -9.5t39.5 -26.5t26.5 -39.5t9.5 -47.5q0 -26 -10 -48.5t-26.5 -39t-39 -26t-47.5 -9.5zM273 190
q20 0 34 14.5t14 35.5q0 20 -14.5 34t-34.5 14t-34.5 -14.5t-14.5 -34.5t14.5 -34.5t35.5 -14.5zM166 496l-15 192h92l-15 -192h-62zM318 496l-15 192h92l-15 -192h-62z" />
    <glyph glyph-name="uni0E24.liga" unicode="&#xe24;&#xe32;" horiz-adv-x="974" 
d="M196 118q0 -16 15 -16h58v-102h-88q-58 0 -86.5 29.5t-28.5 80.5v124q0 32 15 57t38 39l-81 66q10 34 34.5 65.5t59.5 56t80 39.5t97 15q58 0 104 -16.5t78 -45.5q32 26 77 44t105 18q55 0 99 -16.5t74.5 -46t46.5 -71t16 -90.5v-548h-130v548q0 60 -32 90t-80 30
q-39 0 -70 -12.5t-52 -29.5q13 -35 13 -78v-548h-130v548q0 60 -33 90t-89 30q-21 0 -41.5 -5.5t-38 -15t-31 -22t-20.5 -25.5l84 -71q-31 -11 -47 -33.5t-16 -60.5v-117z" />
    <glyph glyph-name="uni0E26.liga" unicode="&#xe26;&#xe32;" horiz-adv-x="984" 
d="M216 110q0 -51 -28.5 -80.5t-86.5 -29.5h-76v102h46q15 0 15 16v116q0 32 13 55t36 37l-91 70q10 34 34 65.5t59.5 56t80.5 39.5t98 15q59 0 105 -17t78 -46q32 27 77.5 45t106.5 18q55 0 99 -16.5t74.5 -46t46.5 -71t16 -90.5v-548h-130v548q0 60 -32 90t-80 30
q-40 0 -72 -13t-52 -31q12 -36 12 -76v-548h-130v548q0 60 -32.5 90t-89.5 30q-44 0 -80.5 -21t-51.5 -47l94 -75q-31 -11 -45 -31.5t-14 -58.5v-125z" />
    <glyph glyph-name="fi" unicode="fi" horiz-adv-x="588" 
d="M520 0h-128v393h-185v-393h-125v393h-74v90h74q0 50 16 88t44.5 63.5t67 38.5t83.5 13q37 0 75 -8.5t62 -22.5l-26 -77q-15 7 -35 11.5t-53 4.5q-55 0 -82 -24.5t-27 -86.5h313v-483z" />
    <glyph glyph-name="fl" unicode="fl" horiz-adv-x="618" 
d="M550 0h-128v581q-22 6 -47.5 9.5t-58.5 3.5q-55 0 -82 -24.5t-27 -86.5h133v-90h-133v-393h-125v393h-74v90h74q0 50 16.5 88t47.5 63.5t74 38.5t97 13q76 0 135.5 -15.5t97.5 -33.5v-637z" />
    <glyph glyph-name=".notdef" horiz-adv-x="515" 
d="M60 0v673h395v-673h-395zM122 63h270v548h-270v-548z" />
    <glyph glyph-name=".null" 
 />
    <glyph glyph-name=".null" 
 />
    <glyph glyph-name="nonmarkingreturn" unicode="&#xd;" horiz-adv-x="195" 
 />
    <glyph glyph-name="space" unicode=" " horiz-adv-x="230" 
 />
    <glyph glyph-name="exclam" unicode="!" horiz-adv-x="272" 
d="M180 194h-88l-22 315v165h132v-165zM55 65q0 -31 21 -54.5t60 -23.5t60 23.5t21 54.5t-21 54.5t-60 23.5t-60 -23.5t-21 -54.5z" />
    <glyph glyph-name="quotedbl" unicode="&#x22;" horiz-adv-x="380" 
d="M64 452l-19 236h119l-19 -236h-81zM235 452l-19 236h119l-19 -236h-81z" />
    <glyph glyph-name="numbersign" unicode="#" horiz-adv-x="590" 
d="M62 463h102l41 187h107l-40 -187h105l41 187h107l-41 -187h83v-95h-103l-19 -85h84v-94h-103l-41 -189h-107l40 189h-105l-40 -189h-108l41 189h-83v94h103l19 85h-83v95zM231 282h108l19 87h-107z" />
    <glyph glyph-name="dollar" unicode="$" horiz-adv-x="590" 
d="M266 -12q-124 3 -202 49l32 103q35 -20 81 -33.5t89 -13.5v188q-30 10 -64.5 24t-64.5 37t-49.5 57t-19.5 84q0 34 11.5 64.5t36 54t62 39t88.5 19.5v90h64v-89q46 -2 86.5 -13t77.5 -29l-32 -96q-32 14 -66.5 22.5t-65.5 10.5v-175q33 -12 67.5 -27.5t62 -38.5t45.5 -56
t18 -79q0 -42 -14.5 -75t-40.5 -56t-61 -37.5t-77 -19.5v-92h-64v88zM191 485q0 -32 21.5 -50.5t53.5 -31.5v150q-38 -7 -56.5 -25t-18.5 -43zM401 182q0 29 -20.5 46.5t-50.5 30.5v-158q32 10 51.5 29.5t19.5 51.5z" />
    <glyph glyph-name="percent" unicode="%" horiz-adv-x="792" 
d="M520 660h119l-367 -660h-119zM132 485q0 -42 12.5 -70.5t35.5 -28.5t35.5 28.5t12.5 70.5t-12.5 70.5t-35.5 28.5t-35.5 -28.5t-12.5 -70.5zM30 485q0 36 10.5 68t30 56.5t47 38.5t62.5 14t62.5 -14t47 -38.5t30 -56.5t10.5 -68t-10.5 -68t-30 -56.5t-47 -38.5t-62.5 -14
t-62.5 14t-47 38.5t-30 56.5t-10.5 68zM564 165q0 -42 12.5 -70.5t35.5 -28.5t35.5 28.5t12.5 70.5t-12.5 70.5t-35.5 28.5t-35.5 -28.5t-12.5 -70.5zM462 165q0 36 10.5 68t30 56.5t47 38.5t62.5 14t62.5 -14t47 -38.5t30 -56.5t10.5 -68t-10.5 -68t-30 -56.5t-47 -38.5
t-62.5 -14t-62.5 14t-47 38.5t-30 56.5t-10.5 68z" />
    <glyph glyph-name="ampersand" unicode="&#x26;" horiz-adv-x="651" 
d="M453 41q-30 -23 -72.5 -38t-90.5 -15q-64 0 -111 16t-77.5 44t-45 65.5t-14.5 79.5q0 32 9.5 58.5t26 49t38 41.5t45.5 36q-2 2 -3.5 4t-3.5 4q-28 34 -45.5 65.5t-17.5 68.5q0 75 48 120.5t135 45.5q52 0 87.5 -12.5t57.5 -33.5t32 -48.5t10 -57.5q0 -32 -10.5 -58
t-28 -47t-40.5 -39t-49 -34l131 -151q8 14 14 38t6 56v51h128v-51q0 -63 -18.5 -108.5t-46.5 -80.5l94 -110h-152zM292 101q26 0 48.5 6.5t39.5 16.5l-144 167q-24 -20 -39 -43.5t-15 -52.5q0 -43 28.5 -68.5t81.5 -25.5zM220 525q0 -17 9.5 -37t23.5 -40l11 -13
q28 15 48 38.5t20 53.5q0 23 -14 40t-40 17q-29 0 -43.5 -15.5t-14.5 -43.5z" />
    <glyph glyph-name="quotesingle" unicode="'" horiz-adv-x="209" 
d="M64 452l-19 236h119l-19 -236h-81z" />
    <glyph glyph-name="parenleft" unicode="(" horiz-adv-x="314" 
d="M50 286q0 85 17 150.5t47 115.5t70 86t86 63l34 -61q-35 -24 -60 -61t-41.5 -83.5t-24.5 -100t-8 -109.5t8 -109.5t24.5 -100t41.5 -83.5t60 -61l-34 -61q-46 27 -86 63t-70 86t-47 115.5t-17 150.5z" />
    <glyph glyph-name="parenright" unicode=")" horiz-adv-x="314" 
d="M264 286q0 -85 -17 -150.5t-47 -115.5t-70 -86t-86 -63l-34 61q34 24 59.5 61t42 83.5t24.5 100t8 109.5t-8 109.5t-24.5 100t-42 83.5t-59.5 61l34 61q46 -27 86 -63t70 -86t47 -115.5t17 -150.5z" />
    <glyph glyph-name="asterisk" unicode="*" horiz-adv-x="473" 
d="M440 554l-147 -88q35 -22 74.5 -45t75.5 -45q-21 -20 -39 -36.5t-38 -36.5l-93 104q5 -32 11.5 -72.5t11.5 -73.5h-118l25 148l-96 -106q-20 20 -38.5 37t-38.5 36l150 90q-35 20 -73 44t-74 44l75 73l93 -99l-23 146h118l-23 -145l92 98z" />
    <glyph glyph-name="plus" unicode="+" horiz-adv-x="590" 
d="M515 233h-159v-161h-122v161h-159v102h159v161h122v-161h159v-102z" />
    <glyph glyph-name="comma" unicode="," horiz-adv-x="262" 
d="M215 132l-87 -257h-85l26 257h146z" />
    <glyph glyph-name="hyphen" unicode="-" horiz-adv-x="330" 
d="M310 309v-102h-290v102h290z" />
    <glyph glyph-name="period" unicode="." horiz-adv-x="262" 
d="M50 65q0 31 21 54.5t60 23.5t60 -23.5t21 -54.5t-21 -54.5t-60 -23.5t-60 23.5t-21 54.5z" />
    <glyph glyph-name="slash" unicode="/" horiz-adv-x="397" 
d="M114 -40h-114l283 714h114z" />
    <glyph glyph-name="zero" unicode="0" horiz-adv-x="590" 
d="M295 662q59 0 106.5 -23t81 -66.5t51.5 -106t18 -141.5t-18 -141.5t-51.5 -106t-81 -66.5t-106.5 -23t-106.5 23t-81 66.5t-51.5 106t-18 141.5t18 141.5t51.5 106t81 66.5t106.5 23zM295 94q57 0 92 57t35 174t-35 174t-92 57t-92 -57t-35 -174t35 -174t92 -57z" />
    <glyph glyph-name="one" unicode="1" horiz-adv-x="590" 
d="M238 528l-130 -32v96l163 58h97v-542l144 2v-110h-424v110l150 -2v420z" />
    <glyph glyph-name="two" unicode="2" horiz-adv-x="590" 
d="M273 556q-46 0 -88 -10t-78 -29l-29 96q16 9 39 18t49 16t53.5 11t54.5 4q116 0 170 -51t54 -135q0 -39 -16 -77.5t-42.5 -76t-61 -74.5t-70.5 -73l-63 -63h271v-112h-460v85l159 163q37 38 65.5 68.5t48.5 57t30.5 51t10.5 51.5q0 38 -24 59t-73 21z" />
    <glyph glyph-name="three" unicode="3" horiz-adv-x="590" 
d="M264 94q60 0 98 28.5t38 72.5q0 21 -9.5 37.5t-26 27.5t-38.5 17t-46 6h-112v102h112q19 0 37.5 6t33 17.5t23 27t8.5 35.5q0 38 -30.5 61.5t-89.5 23.5q-44 0 -90 -10t-82 -29l-29 96q32 17 88.5 33t122.5 16q58 0 102.5 -14.5t74.5 -39t45.5 -58t15.5 -70.5
q0 -53 -27.5 -86.5t-72.5 -52.5q24 -6 45.5 -19.5t38 -33t26.5 -44.5t10 -54q0 -47 -19.5 -84.5t-53 -63.5t-80 -40t-100.5 -14q-69 0 -128.5 14.5t-92.5 34.5l29 96q36 -19 84.5 -29t94.5 -10z" />
    <glyph glyph-name="four" unicode="4" horiz-adv-x="590" 
d="M348 221v239l-173 -239h173zM365 650h109v-429h72v-104h-72v-117h-128v117h-309v83z" />
    <glyph glyph-name="five" unicode="5" horiz-adv-x="590" 
d="M260 94q33 0 57 9t40.5 25t24.5 36.5t8 43.5q0 51 -29.5 78.5t-96.5 27.5h-180v77l26 259h372v-112h-264l-9 -112h56q125 0 190 -57t65 -160q0 -50 -18 -91t-51.5 -70t-81.5 -44.5t-108 -15.5q-69 0 -122 13t-89 36l33 101q34 -19 78.5 -31.5t98.5 -12.5z" />
    <glyph glyph-name="six" unicode="6" horiz-adv-x="590" 
d="M314 331q-43 0 -76.5 -15.5t-57.5 -37.5q1 -45 12 -79.5t29 -58.5t41 -36t48 -12q46 0 77.5 34t31.5 96q0 49 -26.5 79t-78.5 30zM338 558q-37 0 -64.5 -13t-46.5 -36.5t-30 -56.5t-14 -73q24 20 64 36t94 16q40 0 77 -12.5t65 -38t44.5 -64.5t16.5 -91q0 -50 -16.5 -93
t-47 -75t-73.5 -50.5t-95 -18.5q-121 0 -190.5 84t-69.5 247q0 83 20.5 147t57 107.5t87.5 66t111 22.5q49 0 88.5 -13t74.5 -33l-32 -97q-26 18 -56 28.5t-65 10.5z" />
    <glyph glyph-name="seven" unicode="7" horiz-adv-x="590" 
d="M72 650h458v-80l-256 -570h-133l244 540h-313v110z" />
    <glyph glyph-name="eight" unicode="8" horiz-adv-x="590" 
d="M295 90q53 0 85 26t32 71t-30 69.5t-87 24.5t-87 -24.5t-30 -69.5t32 -71t85 -26zM295 662q107 0 166 -46.5t59 -130.5q0 -50 -25 -86t-67 -58q21 -8 41 -22.5t35 -34.5t24.5 -45.5t9.5 -53.5q0 -94 -65.5 -145.5t-177.5 -51.5t-177.5 51.5t-65.5 145.5q0 28 9.5 53.5
t24.5 45.5t35 34.5t41 22.5q-42 22 -67 58t-25 86q0 84 59 130.5t166 46.5zM295 381q45 0 73 24.5t28 68.5q0 41 -28.5 64.5t-72.5 23.5t-72.5 -23.5t-28.5 -64.5q0 -44 28 -68.5t73 -24.5z" />
    <glyph glyph-name="nine" unicode="9" horiz-adv-x="590" 
d="M276 319q43 0 76.5 15.5t57.5 37.5q-1 45 -12 79.5t-29 58.5t-41 36t-48 12q-46 0 -77.5 -34t-31.5 -96q0 -49 26.5 -79t78.5 -30zM252 92q75 0 113.5 48.5t41.5 130.5q-24 -20 -64 -36t-94 -16q-41 0 -77.5 12.5t-64.5 38t-44.5 64.5t-16.5 91q0 49 16.5 92.5t47 75.5
t73 50.5t95.5 18.5q121 0 190.5 -84t69.5 -247q0 -84 -20.5 -148t-57 -107.5t-87.5 -65.5t-111 -22q-49 0 -93 8.5t-80 28.5l32 97q54 -30 131 -30z" />
    <glyph glyph-name="colon" unicode=":" horiz-adv-x="282" 
d="M60 65q0 31 21 54.5t60 23.5t60 -23.5t21 -54.5t-21 -54.5t-60 -23.5t-60 23.5t-21 54.5zM60 405q0 31 21 54.5t60 23.5t60 -23.5t21 -54.5t-21 -54.5t-60 -23.5t-60 23.5t-21 54.5z" />
    <glyph glyph-name="semicolon" unicode=";" horiz-adv-x="282" 
d="M60 405q0 31 21 54.5t60 23.5t60 -23.5t21 -54.5t-21 -54.5t-60 -23.5t-60 23.5t-21 54.5zM216 132l-87 -257h-85l26 257h146z" />
    <glyph glyph-name="less" unicode="&#x3c;" horiz-adv-x="590" 
d="M60 343l452 246v-123l-313 -159l313 -159v-122l-452 245v72z" />
    <glyph glyph-name="equal" unicode="=" horiz-adv-x="590" 
d="M510 323h-430v92h430v-92zM510 139h-430v92h430v-92z" />
    <glyph glyph-name="greater" unicode="&#x3e;" horiz-adv-x="590" 
d="M530 271l-452 -245v122l313 159l-313 159v123l452 -246v-72z" />
    <glyph glyph-name="question" unicode="?" horiz-adv-x="501" 
d="M227 580q-45 0 -87 -13.5t-74 -32.5l-31 100q35 20 85.5 36t110.5 16q112 0 166 -49.5t54 -128.5q0 -36 -12.5 -63t-30.5 -49.5t-40 -42t-40 -40t-30.5 -43.5t-12.5 -53q0 -10 1 -20t4 -21h-110q-5 8 -10 20t-5 29q0 31 11.5 56t29 46t37.5 40.5t37.5 40t29 43t11.5 50.5
q0 15 -5.5 29t-16.5 25t-29 18t-43 7zM155 65q0 31 21 54.5t60 23.5t60 -23.5t21 -54.5t-21 -54.5t-60 -23.5t-60 23.5t-21 54.5z" />
    <glyph glyph-name="at" unicode="@" horiz-adv-x="838" 
d="M498 442q-28 10 -63 10q-58 0 -83 -30t-25 -90q0 -64 23.5 -91t55.5 -27q40 0 66 33.5t26 92.5v102zM139 325q0 -66 22.5 -116t60 -83t85 -50t97.5 -17q46 0 87.5 11.5t75.5 36.5l34 -65q-19 -12 -39 -22t-43 -17t-51 -11t-62 -4q-71 0 -134 22t-110 64.5t-74.5 104
t-27.5 141.5q0 75 25.5 142t73.5 116.5t117 78.5t155 29q79 0 143 -24.5t109.5 -69.5t70 -107.5t24.5 -138.5q0 -56 -12 -97.5t-32 -68.5t-46 -40t-54 -13q-22 0 -40 7.5t-31.5 19t-21.5 25.5t-11 27q-25 -35 -57 -56t-77 -21q-37 0 -68 13.5t-53 39t-34.5 63t-12.5 85.5
q0 40 10 78t34 66.5t63.5 46t99.5 17.5q48 0 89.5 -11t76.5 -30v-236q0 -25 8.5 -42t28.5 -17q23 0 40.5 39t17.5 106q0 61 -17 110.5t-50.5 84.5t-83 54t-114.5 19q-71 0 -125.5 -22.5t-91.5 -62t-56 -92.5t-19 -113z" />
    <glyph glyph-name="A" unicode="A" horiz-adv-x="630" 
d="M437 151h-244l-51 -151h-136l243 674h132l243 -674h-136zM231 259h168l-33 101l-50 172h-2l-50 -172z" />
    <glyph glyph-name="B" unicode="B" horiz-adv-x="628" 
d="M565 493q0 -26 -8 -47.5t-21 -38.5t-29 -29.5t-32 -20.5q49 -14 83 -53.5t34 -106.5q0 -42 -14.5 -78t-45.5 -62.5t-78.5 -41.5t-113.5 -15h-270v674h274q113 0 167 -49.5t54 -131.5zM338 107q60 0 94 26t34 71t-34.5 68t-96.5 23h-139v-188h142zM345 400q42 0 69 20.5
t27 65.5q0 38 -26 59.5t-71 21.5h-148v-167h149z" />
    <glyph glyph-name="C" unicode="C" horiz-adv-x="583" 
d="M359 -12q-78 0 -138.5 26.5t-101.5 73.5t-62 111t-21 138t21 138t62 111t101.5 73.5t138.5 26.5q55 0 101 -11t89 -34l-32 -99q-71 38 -148 38q-101 0 -152 -64t-51 -179t51.5 -179t151.5 -64q30 0 71.5 10t82.5 32l30 -100q-40 -23 -89.5 -35.5t-104.5 -12.5z" />
    <glyph glyph-name="D" unicode="D" horiz-adv-x="663" 
d="M625 340q0 -168 -88.5 -254t-256.5 -86h-210v674h210q168 0 256.5 -85.5t88.5 -248.5zM495 340q0 60 -15 102.5t-42.5 69t-67.5 38.5t-90 12h-80v-450h80q50 0 90 13t67.5 41t42.5 71t15 103z" />
    <glyph glyph-name="E" unicode="E" horiz-adv-x="554" 
d="M70 674h438v-110h-312v-165h293v-110h-293v-179h318v-110h-444v674z" />
    <glyph glyph-name="F" unicode="F" horiz-adv-x="530" 
d="M70 674h430v-110h-304v-172h285v-112h-285v-280h-126v674z" />
    <glyph glyph-name="G" unicode="G" horiz-adv-x="657" 
d="M386 580q-103 0 -161.5 -62.5t-58.5 -187.5q0 -53 13 -96t36.5 -73.5t55 -47t68.5 -16.5q27 0 51 8.5t42 26t28.5 44t10.5 61.5v40h-130v108h256v-385h-112l-14 79q-21 -37 -58.5 -62.5t-97.5 -25.5q-62 0 -113.5 24.5t-88.5 69t-57 107t-20 138.5q0 84 23.5 150
t68 111.5t107.5 70t141 24.5q108 0 194 -45l-32 -99q-35 19 -74.5 28.5t-77.5 9.5z" />
    <glyph glyph-name="H" unicode="H" horiz-adv-x="674" 
d="M474 288h-274v-288h-130v674h130v-274h274v274h130v-674h-130v288z" />
    <glyph glyph-name="I" unicode="I" horiz-adv-x="270" 
d="M200 0h-130v674h130v-674z" />
    <glyph glyph-name="J" unicode="J" horiz-adv-x="403" 
d="M336 199q0 -110 -49.5 -160.5t-134.5 -50.5q-43 0 -83 11.5t-63 26.5l31 105q22 -14 47.5 -22.5t57.5 -8.5t48 22.5t16 76.5v475h130v-475z" />
    <glyph glyph-name="K" unicode="K" horiz-adv-x="620" 
d="M344 358l286 -358h-150l-249 315v82l246 277h146zM200 0h-130v674h130v-674z" />
    <glyph glyph-name="L" unicode="L" horiz-adv-x="520" 
d="M70 674l130 1v-563h298v-112h-428v674z" />
    <glyph glyph-name="M" unicode="M" horiz-adv-x="810" 
d="M344 103l-106 247q-20 48 -33 88.5t-25 85.5h-3q4 -23 7.5 -49t6 -52t4 -50t1.5 -43v-330h-126v674h146l136 -310q20 -45 33.5 -88t18.5 -80h2q5 37 18.5 80t33.5 88l136 310h146v-674h-126v330q0 19 1.5 43t4 50t6 52t7.5 49h-3q-12 -45 -25 -85.5t-33 -88.5l-106 -247
h-122z" />
    <glyph glyph-name="N" unicode="N" horiz-adv-x="682" 
d="M482 674h130v-674h-130l-230 382q-21 35 -37.5 69t-28.5 71h-3q8 -42 12.5 -81.5t4.5 -71.5v-369h-130v674h140l220 -382q21 -35 37.5 -69t28.5 -71h3q-8 42 -12.5 81.5t-4.5 71.5v369z" />
    <glyph glyph-name="O" unicode="O" horiz-adv-x="702" 
d="M166 337q0 -115 47 -179t138 -64t138 64t47 179t-47 179t-138 64t-138 -64t-47 -179zM36 337q0 74 20 138t59.5 111t98.5 73.5t137 26.5t137 -26.5t98.5 -73.5t59.5 -111t20 -138t-20 -138t-59.5 -111t-98.5 -73.5t-137 -26.5t-137 26.5t-98.5 73.5t-59.5 111t-20 138z
" />
    <glyph glyph-name="P" unicode="P" horiz-adv-x="582" 
d="M548 457q0 -47 -17 -87.5t-48 -70.5t-76 -47t-100 -17h-107v-235h-130v674h243q55 0 99 -17t74 -46t46 -69t16 -85zM418 457q0 48 -27 76.5t-78 28.5h-113v-215h107q52 0 81.5 29.5t29.5 80.5z" />
    <glyph glyph-name="Q" unicode="Q" horiz-adv-x="702" 
d="M36 337q0 74 20 138t59.5 111t98.5 73.5t137 26.5t137 -26.5t98.5 -73.5t59.5 -111t20 -138q0 -63 -14 -118.5t-42.5 -99.5t-71 -75t-98.5 -45q-8 -19 -25.5 -36t-33.5 -25h189v-96h-367v96h21q43 0 62.5 15t26.5 37q-69 6 -121 35t-86.5 75t-52 106.5t-17.5 130.5z
M166 337q0 -115 47 -179t138 -64t138 64t47 179t-47 179t-138 64t-138 -64t-47 -179z" />
    <glyph glyph-name="R" unicode="R" horiz-adv-x="601" 
d="M565 465q0 -70 -39.5 -119t-101.5 -71l159 -275h-139l-145 252h-99v-252h-130v674h253q58 0 103 -16.5t76 -44.5t47 -66.5t16 -81.5zM435 465q0 44 -27.5 70.5t-83.5 26.5h-124v-198h124q52 0 81.5 27t29.5 74z" />
    <glyph glyph-name="S" unicode="S" horiz-adv-x="539" 
d="M249 -12q-67 0 -120 13.5t-95 37.5l33 106q36 -20 81.5 -34t90.5 -14q57 0 96 22.5t39 69.5q0 23 -11.5 39t-31 28t-44 20.5t-50.5 17.5q-31 10 -66 24.5t-64.5 38t-49 58.5t-19.5 86q0 38 13.5 72t42.5 59t74 39.5t108 14.5q57 0 104.5 -11t90.5 -33l-33 -100
q-38 17 -79 26t-76 9q-60 0 -89 -21t-29 -53q0 -23 11 -39.5t29 -28.5t41 -21t47 -17q36 -12 73 -27.5t67 -39.5t49 -58.5t19 -84.5q0 -51 -19.5 -88t-53 -62t-79.5 -37t-100 -12z" />
    <glyph glyph-name="T" unicode="T" horiz-adv-x="520" 
d="M325 0h-130v564l-193 -2v112h516v-112l-193 2v-564z" />
    <glyph glyph-name="U" unicode="U" horiz-adv-x="676" 
d="M338 94q66 0 103.5 44.5t37.5 134.5v401h130v-400q0 -146 -72 -216t-199 -70t-199 70t-72 216v400h130v-401q0 -90 37.5 -134.5t103.5 -44.5z" />
    <glyph glyph-name="V" unicode="V" horiz-adv-x="624" 
d="M478 674h138l-236 -674h-136l-236 674h138l115 -360l50 -182h2l50 182z" />
    <glyph glyph-name="W" unicode="W" horiz-adv-x="901" 
d="M512 674l90 -291q6 -18 13 -48t14 -67t13.5 -78.5t11.5 -81.5h3q2 41 6 84t9 82t10 72t10 54l59 274h132l-154 -674h-130l-107 353q-6 20 -11.5 46.5t-10.5 54.5t-9.5 56t-8.5 51h-3q-4 -23 -8.5 -51t-9.5 -56t-10.5 -54.5t-11.5 -46.5l-107 -353h-130l-154 674h132
l59 -274q4 -21 9.5 -54t10.5 -72t9 -82t6 -84h3q5 40 11.5 81.5t13.5 78.5t14 67t13 48l90 291h123z" />
    <glyph glyph-name="X" unicode="X" horiz-adv-x="627" 
d="M385 349l238 -349h-143l-166 258h-2l-165 -258h-143l237 349l-221 325h145l147 -233h2l148 233h145z" />
    <glyph glyph-name="Y" unicode="Y" horiz-adv-x="596" 
d="M363 287v-287h-130v287l-225 387h141l150 -276l148 276h141z" />
    <glyph glyph-name="Z" unicode="Z" horiz-adv-x="557" 
d="M32 80l320 486l-294 -2v110h455v-80l-319 -484l323 2v-112h-485v80z" />
    <glyph glyph-name="bracketleft" unicode="[" horiz-adv-x="296" 
d="M70 684h216v-86h-96v-630h96v-86h-216v802z" />
    <glyph glyph-name="backslash" unicode="\" horiz-adv-x="397" 
d="M0 674h114l283 -714h-114z" />
    <glyph glyph-name="bracketright" unicode="]" horiz-adv-x="296" 
d="M226 -118h-216v86h96v630h-96v86h216v-802z" />
    <glyph glyph-name="asciicircum" unicode="^" horiz-adv-x="568" 
d="M538 276h-136l-118 265l-118 -265h-136l202 398h104z" />
    <glyph glyph-name="underscore" unicode="_" horiz-adv-x="449" 
d="M449 -55v-102h-449v102h449z" />
    <glyph glyph-name="grave" unicode="`" horiz-adv-x="330" 
d="M201 590l-35 -54l-205 105l67 96z" />
    <glyph glyph-name="a" unicode="a" horiz-adv-x="509" 
d="M321 220h-69q-48 0 -74 -21t-26 -59q0 -27 16 -43.5t40 -16.5q25 0 46 9.5t36 25.5t23 37t8 44v24zM32 136q0 46 15.5 78t44 52t69.5 29t92 9h68v16q0 77 -88 77q-41 0 -75.5 -10.5t-66.5 -29.5l-28 88q31 21 80 35.5t105 14.5q101 0 149 -48t48 -134v-313h-110l-14 63
q-9 -14 -21 -27.5t-29 -24t-39 -17t-50 -6.5q-31 0 -58 10t-47.5 29.5t-32.5 46.5t-12 62z" />
    <glyph glyph-name="b" unicode="b" horiz-adv-x="571" 
d="M194 227q0 -63 29 -100t75 -37q22 0 42 8.5t35 27t23.5 49t8.5 74.5q0 68 -28 106t-73 38q-37 0 -64 -19t-48 -45v-102zM66 674h128v-254q10 13 25.5 26t35 24t42.5 18t49 7q48 0 83.5 -20.5t59 -54.5t35 -78.5t11.5 -92.5q0 -63 -16 -111.5t-43.5 -81.5t-63.5 -50.5
t-76 -17.5q-56 0 -88.5 23t-53.5 52l-14 -63h-114v674z" />
    <glyph glyph-name="c" unicode="c" horiz-adv-x="462" 
d="M286 86q70 0 128 32l28 -91q-34 -20 -76.5 -29.5t-83.5 -9.5q-61 0 -107.5 20t-77.5 54.5t-46.5 80.5t-15.5 99q0 52 15 98.5t46 80.5t77.5 54t109.5 20q39 0 78 -9.5t73 -29.5l-27 -89q-25 14 -53.5 22t-61.5 8q-69 0 -99 -41.5t-30 -113.5t30.5 -114t92.5 -42z" />
    <glyph glyph-name="d" unicode="d" horiz-adv-x="571" 
d="M377 329q-18 27 -42.5 45.5t-61.5 18.5q-45 0 -77 -39t-32 -111q0 -42 8.5 -71t23.5 -47t35 -26.5t42 -8.5q46 0 75 37t29 100v102zM505 0h-114l-14 63q-21 -29 -52.5 -52t-82.5 -23q-43 0 -80.5 17t-65.5 50t-44 80.5t-16 107.5q0 50 13 96t38.5 80.5t63 55t86.5 20.5
q54 0 87 -23.5t53 -51.5v254h128v-674z" />
    <glyph glyph-name="e" unicode="e" horiz-adv-x="509" 
d="M161 198q11 -59 48.5 -85.5t85.5 -26.5q65 0 122 30l28 -89q-32 -19 -73.5 -29t-90.5 -10q-62 0 -108 18t-77 51.5t-46 80.5t-15 105q0 52 14 98t42.5 80t73 54t104.5 20q49 0 87 -15.5t64.5 -43t40 -65.5t13.5 -82q0 -23 -4 -48t-10 -43h-299zM270 402
q-48 0 -77.5 -34.5t-34.5 -94.5h196v13q0 57 -21 86.5t-63 29.5z" />
    <glyph glyph-name="f" unicode="f" horiz-adv-x="354" 
d="M283 594q-42 0 -59 -21t-17 -60v-30h133v-90h-133v-393h-125v393h-74v90h74v31q0 82 39.5 127t129.5 45q37 0 65.5 -7.5t51.5 -20.5l-26 -77q-23 13 -59 13z" />
    <glyph glyph-name="g" unicode="g" horiz-adv-x="571" 
d="M377 329q-18 27 -42.5 45.5t-61.5 18.5q-45 0 -77 -37t-32 -107q0 -41 8.5 -69t23.5 -45t35 -25t42 -8q46 0 75 34t29 97v96zM379 75q-21 -29 -53.5 -52t-83.5 -23q-43 0 -80.5 17t-65.5 49t-44 78t-16 105q0 49 13 93.5t38.5 78.5t63 54t86.5 20q54 0 87 -23.5t53 -51.5
l14 63h114v-444q0 -65 -19 -111t-52 -75t-77.5 -42.5t-95.5 -13.5q-57 0 -107.5 14t-83.5 36l32 99q34 -22 73.5 -32t74.5 -10q28 0 51.5 6.5t40.5 22t27 40t10 60.5v42z" />
    <glyph glyph-name="h" unicode="h" horiz-adv-x="576" 
d="M194 0h-128v674h128v-254q11 12 27.5 25.5t37 24.5t46 18t54.5 7q67 0 110 -50t43 -141v-304h-128v300q0 46 -17 69.5t-55 23.5q-35 0 -66.5 -20t-51.5 -44v-329z" />
    <glyph glyph-name="i" unicode="i" horiz-adv-x="264" 
d="M196 0h-128v483h128v-483zM132 686q37 0 57 -21.5t20 -50.5t-20 -50.5t-57 -21.5t-57 21.5t-20 50.5t20 50.5t57 21.5z" />
    <glyph glyph-name="j" unicode="j" horiz-adv-x="264" 
d="M196 -30q0 -174 -142 -174q-39 0 -68.5 9t-49.5 22l27 90q29 -16 63 -16q21 0 31.5 12.5t10.5 47.5v522h128v-513zM132 686q37 0 57 -21.5t20 -50.5t-20 -50.5t-57 -21.5t-57 21.5t-20 50.5t20 50.5t57 21.5z" />
    <glyph glyph-name="k" unicode="k" horiz-adv-x="522" 
d="M532 0h-138q-37 49 -70 93q-29 38 -57.5 76.5t-44.5 61.5v72l162 180h143l-196 -216zM194 0h-128v679h128v-679z" />
    <glyph glyph-name="l" unicode="l" horiz-adv-x="264" 
d="M196 0h-128v674h128v-674z" />
    <glyph glyph-name="m" unicode="m" horiz-adv-x="817" 
d="M191 0h-125v483h111l14 -63q11 12 25.5 25.5t33 24.5t40.5 18t48 7q47 0 78 -23t43 -65q29 33 69 60.5t91 27.5q66 0 100 -45t34 -129v-321h-125v310q0 38 -9.5 60.5t-41.5 22.5q-33 0 -60 -18.5t-45 -45.5v-8v-321h-125v310q0 38 -9.5 60.5t-41.5 22.5q-33 0 -60 -18.5
t-45 -45.5v-329z" />
    <glyph glyph-name="n" unicode="n" horiz-adv-x="574" 
d="M194 0h-128v483h114l14 -63q11 12 27.5 25.5t36.5 24.5t44.5 18t51.5 7q71 0 113.5 -50t42.5 -141v-304h-128v300q0 46 -16 69.5t-54 23.5q-35 0 -66.5 -20t-51.5 -44v-329z" />
    <glyph glyph-name="o" unicode="o" horiz-adv-x="554" 
d="M163 242q0 -72 28 -114t86 -42t86 42t28 114t-28 113.5t-86 41.5t-86 -41.5t-28 -113.5zM35 242q0 52 15 98.5t45 80.5t75.5 54t106.5 20t106.5 -20t75.5 -54t45 -80.5t15 -98.5q0 -53 -15 -99t-45 -80.5t-75.5 -54.5t-106.5 -20t-106.5 20t-75.5 54.5t-45 80.5t-15 99z
" />
    <glyph glyph-name="p" unicode="p" horiz-adv-x="571" 
d="M194 227q0 -63 29 -100t75 -37q22 0 42 8.5t35 27t23.5 49t8.5 74.5q0 68 -28 106t-73 38q-37 0 -64 -19t-48 -45v-102zM66 483h114l14 -63q10 13 25.5 26t35 24t42.5 18t49 7q48 0 83.5 -20.5t59 -54.5t35 -78.5t11.5 -92.5q0 -63 -16 -111.5t-43.5 -81.5t-63.5 -50.5
t-76 -17.5q-56 0 -88.5 23t-53.5 52v-254h-128v674z" />
    <glyph glyph-name="q" unicode="q" horiz-adv-x="571" 
d="M377 329q-18 27 -42.5 45.5t-61.5 18.5q-45 0 -77 -39t-32 -111q0 -42 8.5 -71t23.5 -47t35 -26.5t42 -8.5q46 0 75 37t29 100v102zM505 -191h-128v254q-21 -29 -52.5 -52t-82.5 -23q-43 0 -80.5 17t-65.5 50t-44 80.5t-16 107.5q0 50 13 96t38.5 80.5t63 55t86.5 20.5
q54 0 87 -23.5t53 -51.5l14 63h114v-674z" />
    <glyph glyph-name="r" unicode="r" horiz-adv-x="386" 
d="M194 412q8 16 18.5 31t24.5 26.5t32 18.5t41 7q21 0 39.5 -7.5t30.5 -18.5l-27 -116q-26 21 -67 21q-27 0 -52.5 -12.5t-39.5 -39.5v-322h-128v483h112z" />
    <glyph glyph-name="s" unicode="s" horiz-adv-x="446" 
d="M206 87q42 0 60.5 12.5t18.5 34.5q0 29 -27 44t-69 28q-31 9 -58 20.5t-47 29t-31.5 41.5t-11.5 58q0 65 51 102.5t139 37.5q42 0 85 -7.5t81 -27.5l-29 -94q-29 15 -63 22.5t-67 7.5q-38 0 -55 -10.5t-17 -30.5q0 -22 19.5 -34t51.5 -23q42 -14 74 -28.5t54 -34
t33.5 -45t11.5 -60.5q0 -61 -51 -101.5t-148 -40.5q-48 0 -94 9.5t-81 27.5l29 96q28 -14 65.5 -24t75.5 -10z" />
    <glyph glyph-name="t" unicode="t" horiz-adv-x="370" 
d="M207 147q0 -30 12 -43.5t37 -13.5q33 0 66 23l26 -93q-25 -16 -52.5 -24t-61.5 -8q-81 0 -116.5 39t-35.5 121v245h-74v90h76l30 138h93v-138h137v-90h-137v-246z" />
    <glyph glyph-name="u" unicode="u" horiz-adv-x="565" 
d="M371 483h128v-483h-114l-14 63q-9 -14 -23 -27t-32 -24t-39 -17.5t-45 -6.5q-80 0 -124 46t-44 137v312h128v-308q0 -46 18.5 -65.5t56.5 -19.5q32 0 58 19t46 45v329z" />
    <glyph glyph-name="v" unicode="v" horiz-adv-x="492" 
d="M180 0l-172 483h130l70 -207l37 -162h2l36 162l71 207h130l-172 -483h-132z" />
    <glyph glyph-name="w" unicode="w" horiz-adv-x="710" 
d="M477 281q10 -33 17 -73t14 -95h4q2 55 7 103t10 71l39 196h128l-114 -483h-129l-71 225q-11 36 -17.5 75.5t-8.5 76.5h-2q-2 -37 -8.5 -76.5t-17.5 -75.5l-71 -225h-129l-114 483h128l39 -196q5 -23 10 -71t7 -103h4q7 55 14 95t17 73l61 202h122z" />
    <glyph glyph-name="x" unicode="x" horiz-adv-x="512" 
d="M255 172h-2l-105 -172h-136l174 250l-165 233h135l96 -155h2l94 155h135l-162 -233l179 -250h-136z" />
    <glyph glyph-name="y" unicode="y" horiz-adv-x="565" 
d="M373 75q-9 -14 -23.5 -27t-32.5 -24t-39.5 -17.5t-45.5 -6.5q-80 0 -124 46t-44 137v300h128v-296q0 -46 18.5 -65.5t56.5 -19.5q32 0 58 19t46 45v317h128v-444q0 -65 -18.5 -111t-50.5 -75t-76 -42.5t-95 -13.5q-57 0 -106 13t-82 35l32 99q34 -22 70 -31t70 -9
q62 0 96 28.5t34 100.5v42z" />
    <glyph glyph-name="z" unicode="z" horiz-adv-x="458" 
d="M34 66l222 327h-204v90h360v-66l-222 -327h230v-90h-386v66z" />
    <glyph glyph-name="braceleft" unicode="{" horiz-adv-x="328" 
d="M40 329q45 0 67 13.5t22 48.5q0 18 -4.5 36t-9.5 37.5t-9.5 40t-4.5 41.5q0 69 44.5 103.5t129.5 34.5h33v-86h-30q-32 0 -45 -18t-13 -52q0 -37 8.5 -72t8.5 -69q0 -40 -20 -66.5t-58 -36.5v-2q38 -10 58 -36.5t20 -66.5q0 -34 -8.5 -69t-8.5 -72q0 -34 13 -52t45 -18
h30v-86h-33q-85 0 -129.5 34.5t-44.5 103.5q0 21 4.5 41.5t9.5 40t9.5 37.5t4.5 36q0 35 -22 48.5t-67 13.5v92z" />
    <glyph glyph-name="bar" unicode="|" horiz-adv-x="280" 
d="M80 774h120v-974h-120v974z" />
    <glyph glyph-name="braceright" unicode="}" horiz-adv-x="328" 
d="M288 237q-45 0 -67 -13.5t-22 -48.5q0 -18 4.5 -36t9.5 -37.5t9.5 -40t4.5 -41.5q0 -69 -44.5 -103.5t-129.5 -34.5h-33v86h30q32 0 45 18t13 52q0 37 -8.5 72t-8.5 69q0 40 20 66.5t58 36.5v2q-38 10 -58 36.5t-20 66.5q0 34 8.5 69t8.5 72q0 34 -13 52t-45 18h-30v86
h33q85 0 129.5 -34.5t44.5 -103.5q0 -21 -4.5 -41.5t-9.5 -40t-9.5 -37.5t-4.5 -36q0 -35 22 -48.5t67 -13.5v-92z" />
    <glyph glyph-name="asciitilde" unicode="~" horiz-adv-x="563" 
d="M369 237q-28 0 -51.5 11t-45 24.5t-42.5 24.5t-44 11q-28 0 -49 -19.5t-41 -51.5l-60 61q9 20 22.5 41t32.5 38t44.5 28t58.5 11q29 0 52 -11t44 -24.5t42 -24.5t45 -11q28 0 49 19.5t41 51.5l60 -61q-9 -20 -22.5 -41t-32.5 -38t-44.5 -28t-58.5 -11z" />
    <glyph glyph-name="uni007F" horiz-adv-x="500" 
 />
    <glyph glyph-name="nonbreakingspace" unicode="&#xa0;" 
 />
    <glyph glyph-name="exclamdown" unicode="&#xa1;" horiz-adv-x="272" 
d="M55 494q0 31 21 54.5t60 23.5t60 -23.5t21 -54.5t-21 -54.5t-60 -23.5t-60 23.5t-21 54.5zM202 50v-165h-132v165l22 315h88z" />
    <glyph glyph-name="cent" unicode="&#xa2;" horiz-adv-x="590" 
d="M307 -10q-54 4 -96 25.5t-70.5 55.5t-43 77.5t-14.5 93.5q0 49 14 92.5t42.5 77.5t70 55t97.5 26v90h64v-90q67 -8 123 -39l-27 -89q-20 11 -45 19t-51 11v-308q27 3 53.5 11.5t49.5 21.5l28 -91q-27 -16 -61.5 -25.5t-69.5 -13.5v-90h-64v90zM211 242q0 -63 24.5 -102.5
t71.5 -50.5v303q-49 -11 -72.5 -50t-23.5 -100z" />
    <glyph glyph-name="sterling" unicode="&#xa3;" horiz-adv-x="590" 
d="M72 359h61q-14 27 -25 54.5t-11 59.5q0 43 18.5 77.5t50 59t73 38t88.5 13.5q31 0 54 -2.5t43 -7.5t38.5 -13t40.5 -19l-32 -103q-27 17 -57 25t-68 8q-53 0 -80 -25t-27 -61q0 -29 9 -54t21 -50h157v-64h-129q13 -34 13 -66q0 -31 -20.5 -62.5t-45.5 -54.5h304v-112
h-496v112h51q17 8 32 20.5t26 27.5t17.5 30.5t6.5 29.5q0 20 -5 38.5t-13 36.5h-95v64z" />
    <glyph glyph-name="currency" unicode="&#xa4;" horiz-adv-x="582" 
d="M178 328q0 -26 9 -47.5t24.5 -37.5t36 -24.5t43.5 -8.5t43.5 8.5t36 24.5t24.5 37.5t9 47.5t-9 47.5t-24.5 37.5t-36 24.5t-43.5 8.5t-43.5 -8.5t-36 -24.5t-24.5 -37.5t-9 -47.5zM103 328q0 29 8 53.5t24 49.5l-55 59l52 52l57 -58q48 34 102 34t102 -34l57 58l52 -52
l-55 -59q16 -25 24 -49.5t8 -53.5t-8 -53.5t-24 -49.5l55 -59l-52 -52l-57 58q-48 -34 -102 -34t-102 34l-57 -58l-52 52l55 59q-16 25 -24 49.5t-8 53.5z" />
    <glyph glyph-name="yen" unicode="&#xa5;" horiz-adv-x="590" 
d="M81 349h115l-171 301h141l131 -272l127 272h141l-169 -301h115v-64h-150v-60h150v-64h-150v-161h-130v161h-150v64h150v60h-150v64z" />
    <glyph glyph-name="brokenbar" unicode="&#xa6;" horiz-adv-x="280" 
d="M80 674h120v-351h-120v351zM80 176h120v-351h-120v351z" />
    <glyph glyph-name="section" unicode="&#xa7;" horiz-adv-x="590" 
d="M395 280q0 21 -21.5 36t-50.5 25.5t-58 18t-45 13.5q-4 -3 -8.5 -10.5t-4.5 -16.5q0 -23 21 -38t49.5 -25t58 -16.5t47.5 -12.5q5 5 8.5 10t3.5 16zM256 38q25 0 46.5 5t37.5 13t25.5 19t9.5 23q0 15 -8 26t-21.5 19t-30 13.5l-34.5 11.5q-27 7 -62 19t-65.5 31.5
t-51.5 48t-21 69.5q0 67 49 97q-17 21 -24.5 45.5t-7.5 47.5q0 36 15 65.5t43 50.5t68.5 32.5t90.5 11.5q45 0 90 -12.5t84 -31.5l-29 -90q-37 20 -72.5 27t-65.5 7q-48 0 -70 -17.5t-22 -42.5q0 -26 28.5 -41.5t65.5 -26.5q31 -11 66 -23.5t64.5 -31t48.5 -46.5t19 -68
q0 -65 -50 -95q20 -24 27 -48.5t7 -47.5q0 -35 -17.5 -64.5t-49 -51t-76.5 -33.5t-100 -12q-46 0 -95.5 12t-88.5 32l29 90q35 -17 73 -25t75 -8z" />
    <glyph glyph-name="dieresis" unicode="&#xa8;" horiz-adv-x="330" 
d="M58 677q32 0 49.5 -19t17.5 -44t-17.5 -44t-49.5 -19t-49.5 19t-17.5 44t17.5 44t49.5 19zM272 677q32 0 49.5 -19t17.5 -44t-17.5 -44t-49.5 -19t-49.5 19t-17.5 44t17.5 44t49.5 19z" />
    <glyph glyph-name="copyright" unicode="&#xa9;" horiz-adv-x="708" 
d="M354 594q-53 0 -98.5 -20t-78.5 -55t-52 -81.5t-19 -100.5t19 -100.5t52 -81.5t78.5 -55t98.5 -20t98.5 20t78.5 55t52 81.5t19 100.5t-19 100.5t-52 81.5t-78.5 55t-98.5 20zM371 456q-52 0 -76.5 -33t-24.5 -87t24 -87t78 -33q21 0 45 6t46 20l16 -55q-47 -30 -113 -30
q-43 0 -76 14t-55 38t-33.5 56.5t-11.5 70.5t11.5 71t34.5 57t57 37.5t78 13.5q32 0 58.5 -7.5t46.5 -20.5l-18 -53q-21 11 -41 16.5t-46 5.5zM354 23q-68 0 -125.5 24.5t-99.5 67.5t-65.5 100t-23.5 122t23.5 122t65.5 100t99.5 67.5t125.5 24.5q67 0 124.5 -24.5
t99.5 -67.5t66 -100t24 -122t-24 -122t-66 -100t-99.5 -67.5t-124.5 -24.5z" />
    <glyph glyph-name="ordfeminine" unicode="&#xaa;" horiz-adv-x="365" 
d="M238 460h-54q-36 0 -55 -14t-19 -40q0 -43 46 -43q35 0 58.5 24.5t23.5 57.5v15zM238 525q0 33 -17.5 48.5t-44.5 15.5t-56.5 -8t-58.5 -22l-22 64q24 13 61 25t79 12q75 0 110.5 -36.5t35.5 -99.5v-224h-71l-10 51q-15 -23 -38 -40.5t-66 -17.5q-25 0 -46.5 6.5t-38 20
t-26 34t-9.5 48.5q0 64 44 93.5t120 29.5h54z" />
    <glyph glyph-name="guillemotleft" unicode="&#xab;" horiz-adv-x="511" 
d="M144 242l127 -180h-123l-128 180l128 180h123zM354 242l127 -180h-123l-128 180l128 180h123z" />
    <glyph glyph-name="logicalnot" unicode="&#xac;" horiz-adv-x="517" 
d="M347 113v165h-317v96h437v-261h-120z" />
    <glyph glyph-name="uni00AD" unicode="&#xad;" horiz-adv-x="324" 
d="M10 299h304v-98h-304v98z" />
    <glyph glyph-name="registered" unicode="&#xae;" horiz-adv-x="538" 
d="M375 504q0 -25 -16.5 -46t-39.5 -26l61 -102h-59l-53 94h-32v-94h-54v252h99q51 0 72.5 -21.5t21.5 -56.5zM322 504q0 17 -9.5 25t-32.5 8h-44v-69h43q43 0 43 36zM269 234q-51 0 -93 17.5t-72 48t-47 71.5t-17 88t17 88t47 71.5t72 48t93 17.5t93 -17.5t72 -48t47 -71.5
t17 -88t-17 -88t-47 -71.5t-72 -48t-93 -17.5zM269 279q40 0 72.5 14t55.5 38t35 57t12 71t-12 71t-35 57t-55.5 38t-72.5 14q-41 0 -73 -14t-55 -38t-35 -57t-12 -71t12 -71t35 -57t55 -38t73 -14z" />
    <glyph glyph-name="macron" unicode="&#xaf;" horiz-adv-x="330" 
d="M8 569v85h314v-85h-314z" />
    <glyph glyph-name="degree" unicode="&#xb0;" horiz-adv-x="358" 
d="M123 551q0 -26 16 -44t40 -18t40 18t16 44t-16 44t-40 18t-40 -18t-16 -44zM36 551q0 28 10.5 52.5t29 43t45 29t58.5 10.5t58.5 -10.5t45 -29t29 -43t10.5 -52.5t-10.5 -52.5t-29 -43t-45 -29t-58.5 -10.5t-58.5 10.5t-45 29t-29 43t-10.5 52.5z" />
    <glyph glyph-name="plusminus" unicode="&#xb1;" horiz-adv-x="590" 
d="M515 263h-159v-151h-122v151h-159v102h159v151h122v-151h159v-102zM515 0h-440v72h440v-72z" />
    <glyph glyph-name="twosuperior" unicode="&#xb2;" horiz-adv-x="315" 
d="M134 579q-43 0 -84 -19l-24 72q26 12 55 21t71 9q64 0 95.5 -28t31.5 -70q0 -24 -9 -45t-23 -39.5t-30.5 -35l-32.5 -32.5l-32 -27h141v-85h-273v64l87 86q31 31 50 55.5t19 46.5q0 14 -9.5 20.5t-32.5 6.5z" />
    <glyph glyph-name="threesuperior" unicode="&#xb3;" horiz-adv-x="313" 
d="M139 376q49 0 49 36q0 35 -42 35h-64v74h59q17 0 27.5 7.5t10.5 21.5q0 30 -48 30q-15 0 -37.5 -6t-50.5 -20l-29 74q29 16 61 25t64 9q72 0 106 -29t34 -71q0 -27 -16 -46.5t-37 -26.5q28 -8 45.5 -32t17.5 -52q0 -50 -37 -80.5t-97 -30.5q-48 0 -82 9t-63 24l29 78
q23 -14 50 -21.5t50 -7.5z" />
    <glyph glyph-name="acute" unicode="&#xb4;" horiz-adv-x="330" 
d="M302 737l67 -96l-205 -105l-35 54z" />
    <glyph glyph-name="mu" unicode="&#xb5;" horiz-adv-x="567" 
d="M66 483h128v-292q0 -46 22 -75.5t64 -29.5q12 0 24 6t24 15.5t23.5 21.5t21.5 25v329h128v-483h-114l-14 63q-15 -31 -41.5 -53t-58.5 -22q-34 0 -52.5 8.5t-26.5 15.5v-212h-128v683z" />
    <glyph glyph-name="paragraph" unicode="&#xb6;" horiz-adv-x="457" 
d="M30 488q0 44 15.5 78.5t42 58.5t61 36.5t73.5 12.5h209v-78h-70q-23 0 -30.5 -12.5t-7.5 -33.5v-598h-106v354q-35 0 -69 11.5t-60 34.5t-42 57t-16 79z" />
    <glyph glyph-name="periodcentered" unicode="&#xb7;" horiz-adv-x="262" 
d="M50 259q0 31 21 54.5t60 23.5t60 -23.5t21 -54.5t-21 -54.5t-60 -23.5t-60 23.5t-21 54.5z" />
    <glyph glyph-name="cedilla" unicode="&#xb8;" horiz-adv-x="330" 
d="M166 -182h-133l104 140h79z" />
    <glyph glyph-name="onesuperior" unicode="&#xb9;" horiz-adv-x="305" 
d="M110 563l-64 -20v78l97 34h73v-272h69v-83h-253v83h78v180z" />
    <glyph glyph-name="ordmasculine" unicode="&#xba;" horiz-adv-x="402" 
d="M116 478q0 -51 20 -82.5t65 -31.5t65.5 31.5t20.5 82.5q0 49 -20.5 80.5t-65.5 31.5t-65 -31.5t-20 -80.5zM26 478q0 39 10.5 72t32 58t54.5 39t78 14t78 -14t54.5 -39t32 -58t10.5 -72t-10.5 -73t-32 -59t-54.5 -39t-78 -14t-78 14t-54.5 39t-32 59t-10.5 73z" />
    <glyph glyph-name="guillemotright" unicode="&#xbb;" horiz-adv-x="511" 
d="M240 422h123l128 -180l-128 -180h-123l127 180zM30 422h123l128 -180l-128 -180h-123l127 180z" />
    <glyph glyph-name="onequarter" unicode="&#xbc;" horiz-adv-x="776" 
d="M525 660h119l-367 -660h-119zM621 138v102l-73 -102h73zM631 355h89v-217h46v-77h-46v-61h-100v61h-154v67zM115 563l-64 -20v78l97 34h73v-272h69v-83h-253v83h78v180z" />
    <glyph glyph-name="onehalf" unicode="&#xbd;" horiz-adv-x="776" 
d="M525 660h119l-367 -660h-119zM115 563l-64 -20v78l97 34h73v-272h69v-83h-253v83h78v180zM584 279q-20 0 -39 -6.5t-39 -15.5l-24 72q26 12 52.5 22.5t67.5 10.5q64 0 95.5 -28t31.5 -70q0 -24 -9 -45t-23 -39.5t-30.5 -35l-32.5 -32.5l-32 -27h141v-85h-273v64l87 86
q31 31 50 55.5t19 46.5q0 14 -9.5 20.5t-32.5 6.5z" />
    <glyph glyph-name="threequarters" unicode="&#xbe;" horiz-adv-x="776" 
d="M525 660h119l-367 -660h-119zM621 138v102l-73 -102h73zM631 355h89v-217h46v-77h-46v-61h-100v61h-154v67zM149 376q49 0 49 36q0 35 -42 35h-64v74h59q17 0 27.5 7.5t10.5 21.5q0 30 -48 30q-15 0 -37.5 -6t-50.5 -20l-29 74q29 16 61 25t64 9q72 0 106 -29t34 -71
q0 -27 -16 -46.5t-37 -26.5q28 -8 45.5 -32t17.5 -52q0 -50 -37 -80.5t-97 -30.5q-48 0 -82 9t-63 24l29 78q23 -14 50 -21.5t50 -7.5z" />
    <glyph glyph-name="questiondown" unicode="&#xbf;" horiz-adv-x="501" 
d="M274 -98q45 0 87 13.5t74 32.5l31 -100q-35 -20 -85.5 -36t-110.5 -16q-112 0 -166 49.5t-54 128.5q0 36 12.5 63t30.5 49.5t40 42t40 40t30.5 43.5t12.5 53q0 10 -1 20t-4 21h110q5 -8 10 -20t5 -29q0 -31 -11.5 -56t-29 -46t-37.5 -40.5t-37.5 -40t-29 -43t-11.5 -50.5
q0 -15 5.5 -29t16.5 -25t29 -18t43 -7zM346 417q0 -31 -21 -54.5t-60 -23.5t-60 23.5t-21 54.5t21 54.5t60 23.5t60 -23.5t21 -54.5z" />
    <glyph glyph-name="Agrave" unicode="&#xc0;" horiz-adv-x="630" 
d="M437 151h-244l-51 -151h-136l243 674h132l243 -674h-136zM231 259h168l-33 101l-50 172h-2l-50 -172zM435 786l-35 -54l-205 105l67 96z" />
    <glyph glyph-name="Aacute" unicode="&#xc1;" horiz-adv-x="630" 
d="M437 151h-244l-51 -151h-136l243 674h132l243 -674h-136zM231 259h168l-33 101l-50 172h-2l-50 -172zM368 933l67 -96l-205 -105l-35 54z" />
    <glyph glyph-name="Acircumflex" unicode="&#xc2;" horiz-adv-x="630" 
d="M437 151h-244l-51 -151h-136l243 674h132l243 -674h-136zM231 259h168l-33 101l-50 172h-2l-50 -172zM486 735h-126l-45 77l-45 -77h-126l134 147h74z" />
    <glyph glyph-name="Atilde" unicode="&#xc3;" horiz-adv-x="630" 
d="M437 151h-244l-51 -151h-136l243 674h132l243 -674h-136zM231 259h168l-33 101l-50 172h-2l-50 -172zM480 868q0 -54 -24 -87t-66 -33q-26 0 -45 8t-34 17t-27.5 17t-26.5 8q-20 0 -26.5 -14t-6.5 -31h-74q0 52 23.5 86t68.5 34q25 0 44 -8t34.5 -17t28 -17t24.5 -8
q20 0 26 12.5t6 32.5h75z" />
    <glyph glyph-name="Adieresis" unicode="&#xc4;" horiz-adv-x="630" 
d="M437 151h-244l-51 -151h-136l243 674h132l243 -674h-136zM231 259h168l-33 101l-50 172h-2l-50 -172zM208 873q32 0 49.5 -19t17.5 -44t-17.5 -44t-49.5 -19t-49.5 19t-17.5 44t17.5 44t49.5 19zM422 873q32 0 49.5 -19t17.5 -44t-17.5 -44t-49.5 -19t-49.5 19t-17.5 44
t17.5 44t49.5 19z" />
    <glyph glyph-name="Aring" unicode="&#xc5;" horiz-adv-x="630" 
d="M437 151h-244l-51 -151h-136l243 674h132l243 -674h-136zM231 259h168l-33 101l-50 172h-2l-50 -172zM315 927q21 0 40 -7.5t33 -21t22 -31.5t8 -38t-8 -38t-22 -31.5t-33 -21t-40 -7.5t-40 7.5t-33 21t-22 31.5t-8 38t8 38t22 31.5t33 21t40 7.5zM315 864
q-14 0 -21.5 -9.5t-7.5 -25.5t7.5 -25.5t21.5 -9.5t21.5 9.5t7.5 25.5t-7.5 25.5t-21.5 9.5z" />
    <glyph glyph-name="AE" unicode="&#xc6;" horiz-adv-x="849" 
d="M450 151h-244l-64 -151h-136l300 674h497v-110h-335l46 -165h270v-110h-240l49 -179h216v-110h-321zM253 259h168l-25 101l-35 172h-2l-65 -172z" />
    <glyph glyph-name="Ccedilla" unicode="&#xc7;" horiz-adv-x="583" 
d="M359 -12q-78 0 -138.5 26.5t-101.5 73.5t-62 111t-21 138t21 138t62 111t101.5 73.5t138.5 26.5q55 0 101 -11t89 -34l-32 -99q-71 38 -148 38q-101 0 -152 -64t-51 -179t51.5 -179t151.5 -64q30 0 71.5 10t82.5 32l30 -100q-40 -23 -89.5 -35.5t-104.5 -12.5zM333 -182
h-133l104 140h79z" />
    <glyph glyph-name="Egrave" unicode="&#xc8;" horiz-adv-x="554" 
d="M70 674h438v-110h-312v-165h293v-110h-293v-179h318v-110h-444v674zM407 786l-35 -54l-205 105l67 96z" />
    <glyph glyph-name="Eacute" unicode="&#xc9;" horiz-adv-x="554" 
d="M70 674h438v-110h-312v-165h293v-110h-293v-179h318v-110h-444v674zM340 933l67 -96l-205 -105l-35 54z" />
    <glyph glyph-name="Ecircumflex" unicode="&#xca;" horiz-adv-x="554" 
d="M70 674h438v-110h-312v-165h293v-110h-293v-179h318v-110h-444v674zM458 735h-126l-45 77l-45 -77h-126l134 147h74z" />
    <glyph glyph-name="Edieresis" unicode="&#xcb;" horiz-adv-x="554" 
d="M70 674h438v-110h-312v-165h293v-110h-293v-179h318v-110h-444v674zM180 873q32 0 49.5 -19t17.5 -44t-17.5 -44t-49.5 -19t-49.5 19t-17.5 44t17.5 44t49.5 19zM394 873q32 0 49.5 -19t17.5 -44t-17.5 -44t-49.5 -19t-49.5 19t-17.5 44t17.5 44t49.5 19z" />
    <glyph glyph-name="Igrave" unicode="&#xcc;" horiz-adv-x="270" 
d="M200 0h-130v674h130v-674zM255 786l-35 -54l-205 105l67 96z" />
    <glyph glyph-name="Iacute" unicode="&#xcd;" horiz-adv-x="270" 
d="M200 0h-130v674h130v-674zM188 933l67 -96l-205 -105l-35 54z" />
    <glyph glyph-name="Icircumflex" unicode="&#xce;" horiz-adv-x="270" 
d="M200 0h-130v674h130v-674zM306 735h-126l-45 77l-45 -77h-126l134 147h74z" />
    <glyph glyph-name="Idieresis" unicode="&#xcf;" horiz-adv-x="270" 
d="M200 0h-130v674h130v-674zM28 873q32 0 49.5 -19t17.5 -44t-17.5 -44t-49.5 -19t-49.5 19t-17.5 44t17.5 44t49.5 19zM242 873q32 0 49.5 -19t17.5 -44t-17.5 -44t-49.5 -19t-49.5 19t-17.5 44t17.5 44t49.5 19z" />
    <glyph glyph-name="Eth" unicode="&#xd0;" horiz-adv-x="663" 
d="M70 373v301h210q168 0 256.5 -85.5t88.5 -248.5q0 -168 -88.5 -254t-256.5 -86h-210v281h-64v92h64zM495 340q0 60 -15 102.5t-42.5 69t-67.5 38.5t-90 12h-80v-189h136v-92h-136v-169h80q50 0 90 13t67.5 41t42.5 71t15 103z" />
    <glyph glyph-name="Ntilde" unicode="&#xd1;" horiz-adv-x="682" 
d="M482 674h130v-674h-130l-230 382q-21 35 -37.5 69t-28.5 71h-3q8 -42 12.5 -81.5t4.5 -71.5v-369h-130v674h140l220 -382q21 -35 37.5 -69t28.5 -71h3q-8 42 -12.5 81.5t-4.5 71.5v369zM506 868q0 -54 -24 -87t-66 -33q-26 0 -45 8t-34 17t-27.5 17t-26.5 8
q-20 0 -26.5 -14t-6.5 -31h-74q0 52 23.5 86t68.5 34q25 0 44 -8t34.5 -17t28 -17t24.5 -8q20 0 26 12.5t6 32.5h75z" />
    <glyph glyph-name="Ograve" unicode="&#xd2;" horiz-adv-x="702" 
d="M166 337q0 -115 47 -179t138 -64t138 64t47 179t-47 179t-138 64t-138 -64t-47 -179zM36 337q0 74 20 138t59.5 111t98.5 73.5t137 26.5t137 -26.5t98.5 -73.5t59.5 -111t20 -138t-20 -138t-59.5 -111t-98.5 -73.5t-137 -26.5t-137 26.5t-98.5 73.5t-59.5 111t-20 138z
M471 786l-35 -54l-205 105l67 96z" />
    <glyph glyph-name="Oacute" unicode="&#xd3;" horiz-adv-x="702" 
d="M166 337q0 -115 47 -179t138 -64t138 64t47 179t-47 179t-138 64t-138 -64t-47 -179zM36 337q0 74 20 138t59.5 111t98.5 73.5t137 26.5t137 -26.5t98.5 -73.5t59.5 -111t20 -138t-20 -138t-59.5 -111t-98.5 -73.5t-137 -26.5t-137 26.5t-98.5 73.5t-59.5 111t-20 138z
M404 933l67 -96l-205 -105l-35 54z" />
    <glyph glyph-name="Ocircumflex" unicode="&#xd4;" horiz-adv-x="702" 
d="M166 337q0 -115 47 -179t138 -64t138 64t47 179t-47 179t-138 64t-138 -64t-47 -179zM36 337q0 74 20 138t59.5 111t98.5 73.5t137 26.5t137 -26.5t98.5 -73.5t59.5 -111t20 -138t-20 -138t-59.5 -111t-98.5 -73.5t-137 -26.5t-137 26.5t-98.5 73.5t-59.5 111t-20 138z
M522 735h-126l-45 77l-45 -77h-126l134 147h74z" />
    <glyph glyph-name="Otilde" unicode="&#xd5;" horiz-adv-x="702" 
d="M166 337q0 -115 47 -179t138 -64t138 64t47 179t-47 179t-138 64t-138 -64t-47 -179zM36 337q0 74 20 138t59.5 111t98.5 73.5t137 26.5t137 -26.5t98.5 -73.5t59.5 -111t20 -138t-20 -138t-59.5 -111t-98.5 -73.5t-137 -26.5t-137 26.5t-98.5 73.5t-59.5 111t-20 138z
M516 868q0 -54 -24 -87t-66 -33q-26 0 -45 8t-34 17t-27.5 17t-26.5 8q-20 0 -26.5 -14t-6.5 -31h-74q0 52 23.5 86t68.5 34q25 0 44 -8t34.5 -17t28 -17t24.5 -8q20 0 26 12.5t6 32.5h75z" />
    <glyph glyph-name="Odieresis" unicode="&#xd6;" horiz-adv-x="702" 
d="M166 337q0 -115 47 -179t138 -64t138 64t47 179t-47 179t-138 64t-138 -64t-47 -179zM36 337q0 74 20 138t59.5 111t98.5 73.5t137 26.5t137 -26.5t98.5 -73.5t59.5 -111t20 -138t-20 -138t-59.5 -111t-98.5 -73.5t-137 -26.5t-137 26.5t-98.5 73.5t-59.5 111t-20 138z
M244 873q32 0 49.5 -19t17.5 -44t-17.5 -44t-49.5 -19t-49.5 19t-17.5 44t17.5 44t49.5 19zM458 873q32 0 49.5 -19t17.5 -44t-17.5 -44t-49.5 -19t-49.5 19t-17.5 44t17.5 44t49.5 19z" />
    <glyph glyph-name="multiply" unicode="&#xd7;" horiz-adv-x="590" 
d="M295 185l-127 -127l-82 82l127 127l-127 127l82 82l127 -127l127 127l82 -82l-127 -127l127 -127l-82 -82z" />
    <glyph glyph-name="Oslash" unicode="&#xd8;" horiz-adv-x="702" 
d="M560 613q53 -48 79.5 -119t26.5 -157q0 -74 -20 -138t-59.5 -111t-98.5 -73.5t-137 -26.5q-45 0 -82.5 8.5t-69.5 24.5l-37 -61h-81l61 100q-54 48 -80 119t-26 158q0 74 20 138t59.5 111t98.5 73.5t137 26.5q86 0 151 -34l38 62h81zM166 337q0 -108 41 -170l237 389
q-39 24 -93 24q-91 0 -138 -64t-47 -179zM536 337q0 108 -41 170l-237 -390q40 -23 93 -23q91 0 138 64t47 179z" />
    <glyph glyph-name="Ugrave" unicode="&#xd9;" horiz-adv-x="676" 
d="M338 94q66 0 103.5 44.5t37.5 134.5v401h130v-400q0 -146 -72 -216t-199 -70t-199 70t-72 216v400h130v-401q0 -90 37.5 -134.5t103.5 -44.5zM458 786l-35 -54l-205 105l67 96z" />
    <glyph glyph-name="Uacute" unicode="&#xda;" horiz-adv-x="676" 
d="M338 94q66 0 103.5 44.5t37.5 134.5v401h130v-400q0 -146 -72 -216t-199 -70t-199 70t-72 216v400h130v-401q0 -90 37.5 -134.5t103.5 -44.5zM391 933l67 -96l-205 -105l-35 54z" />
    <glyph glyph-name="Ucircumflex" unicode="&#xdb;" horiz-adv-x="676" 
d="M338 94q66 0 103.5 44.5t37.5 134.5v401h130v-400q0 -146 -72 -216t-199 -70t-199 70t-72 216v400h130v-401q0 -90 37.5 -134.5t103.5 -44.5zM509 735h-126l-45 77l-45 -77h-126l134 147h74z" />
    <glyph glyph-name="Udieresis" unicode="&#xdc;" horiz-adv-x="676" 
d="M338 94q66 0 103.5 44.5t37.5 134.5v401h130v-400q0 -146 -72 -216t-199 -70t-199 70t-72 216v400h130v-401q0 -90 37.5 -134.5t103.5 -44.5zM231 873q32 0 49.5 -19t17.5 -44t-17.5 -44t-49.5 -19t-49.5 19t-17.5 44t17.5 44t49.5 19zM445 873q32 0 49.5 -19t17.5 -44
t-17.5 -44t-49.5 -19t-49.5 19t-17.5 44t17.5 44t49.5 19z" />
    <glyph glyph-name="Yacute" unicode="&#xdd;" horiz-adv-x="596" 
d="M363 287v-287h-130v287l-225 387h141l150 -276l148 276h141zM351 933l67 -96l-205 -105l-35 54z" />
    <glyph glyph-name="Thorn" unicode="&#xde;" horiz-adv-x="582" 
d="M548 338q0 -45 -17 -84t-48 -68t-76 -45.5t-100 -16.5h-107v-124h-130v674h130v-127h113q55 0 99 -16.5t74 -44.5t46 -66.5t16 -81.5zM418 338q0 45 -27 71t-78 26h-113v-199h107q52 0 81.5 27t29.5 75z" />
    <glyph glyph-name="germandbls" unicode="&#xdf;" horiz-adv-x="620" 
d="M190 0h-125v413q0 55 16.5 104.5t49.5 87t82.5 59.5t115.5 22q49 0 90.5 -14.5t71.5 -38.5t46.5 -56t16.5 -67q0 -31 -9 -55t-24 -41t-33.5 -27.5t-37.5 -14.5q27 -9 51.5 -24.5t43 -39t29 -54t10.5 -67.5q0 -49 -16 -86t-43.5 -61.5t-65.5 -36.5t-83 -12q-38 0 -79 8.5
t-73 25.5l19 86q23 -12 54.5 -20t60.5 -8q49 0 75 30.5t26 87.5q0 62 -38 95.5t-110 33.5h-43v90h66q48 0 73.5 20t25.5 68q0 13 -5 28.5t-17 28t-32 21t-50 8.5q-73 0 -106 -48t-33 -133v-413z" />
    <glyph glyph-name="agrave" unicode="&#xe0;" horiz-adv-x="509" 
d="M321 220h-69q-48 0 -74 -21t-26 -59q0 -27 16 -43.5t40 -16.5q25 0 46 9.5t36 25.5t23 37t8 44v24zM32 136q0 46 15.5 78t44 52t69.5 29t92 9h68v16q0 77 -88 77q-41 0 -75.5 -10.5t-66.5 -29.5l-28 88q31 21 80 35.5t105 14.5q101 0 149 -48t48 -134v-313h-110l-14 63
q-9 -14 -21 -27.5t-29 -24t-39 -17t-50 -6.5q-31 0 -58 10t-47.5 29.5t-32.5 46.5t-12 62zM374 590l-35 -54l-205 105l67 96z" />
    <glyph glyph-name="aacute" unicode="&#xe1;" horiz-adv-x="509" 
d="M321 220h-69q-48 0 -74 -21t-26 -59q0 -27 16 -43.5t40 -16.5q25 0 46 9.5t36 25.5t23 37t8 44v24zM32 136q0 46 15.5 78t44 52t69.5 29t92 9h68v16q0 77 -88 77q-41 0 -75.5 -10.5t-66.5 -29.5l-28 88q31 21 80 35.5t105 14.5q101 0 149 -48t48 -134v-313h-110l-14 63
q-9 -14 -21 -27.5t-29 -24t-39 -17t-50 -6.5q-31 0 -58 10t-47.5 29.5t-32.5 46.5t-12 62zM307 737l67 -96l-205 -105l-35 54z" />
    <glyph glyph-name="acircumflex" unicode="&#xe2;" horiz-adv-x="509" 
d="M321 220h-69q-48 0 -74 -21t-26 -59q0 -27 16 -43.5t40 -16.5q25 0 46 9.5t36 25.5t23 37t8 44v24zM32 136q0 46 15.5 78t44 52t69.5 29t92 9h68v16q0 77 -88 77q-41 0 -75.5 -10.5t-66.5 -29.5l-28 88q31 21 80 35.5t105 14.5q101 0 149 -48t48 -134v-313h-110l-14 63
q-9 -14 -21 -27.5t-29 -24t-39 -17t-50 -6.5q-31 0 -58 10t-47.5 29.5t-32.5 46.5t-12 62zM425 539h-126l-45 77l-45 -77h-126l134 147h74z" />
    <glyph glyph-name="atilde" unicode="&#xe3;" horiz-adv-x="509" 
d="M321 220h-69q-48 0 -74 -21t-26 -59q0 -27 16 -43.5t40 -16.5q25 0 46 9.5t36 25.5t23 37t8 44v24zM32 136q0 46 15.5 78t44 52t69.5 29t92 9h68v16q0 77 -88 77q-41 0 -75.5 -10.5t-66.5 -29.5l-28 88q31 21 80 35.5t105 14.5q101 0 149 -48t48 -134v-313h-110l-14 63
q-9 -14 -21 -27.5t-29 -24t-39 -17t-50 -6.5q-31 0 -58 10t-47.5 29.5t-32.5 46.5t-12 62zM419 672q0 -54 -24 -87t-66 -33q-26 0 -45 8t-34 17t-27.5 17t-26.5 8q-20 0 -26.5 -14t-6.5 -31h-74q0 52 23.5 86t68.5 34q25 0 44 -8t34.5 -17t28 -17t24.5 -8q20 0 26 12.5
t6 32.5h75z" />
    <glyph glyph-name="adieresis" unicode="&#xe4;" horiz-adv-x="509" 
d="M321 220h-69q-48 0 -74 -21t-26 -59q0 -27 16 -43.5t40 -16.5q25 0 46 9.5t36 25.5t23 37t8 44v24zM32 136q0 46 15.5 78t44 52t69.5 29t92 9h68v16q0 77 -88 77q-41 0 -75.5 -10.5t-66.5 -29.5l-28 88q31 21 80 35.5t105 14.5q101 0 149 -48t48 -134v-313h-110l-14 63
q-9 -14 -21 -27.5t-29 -24t-39 -17t-50 -6.5q-31 0 -58 10t-47.5 29.5t-32.5 46.5t-12 62zM147 677q32 0 49.5 -19t17.5 -44t-17.5 -44t-49.5 -19t-49.5 19t-17.5 44t17.5 44t49.5 19zM361 677q32 0 49.5 -19t17.5 -44t-17.5 -44t-49.5 -19t-49.5 19t-17.5 44t17.5 44
t49.5 19z" />
    <glyph glyph-name="aring" unicode="&#xe5;" horiz-adv-x="509" 
d="M321 220h-69q-48 0 -74 -21t-26 -59q0 -27 16 -43.5t40 -16.5q25 0 46 9.5t36 25.5t23 37t8 44v24zM32 136q0 46 15.5 78t44 52t69.5 29t92 9h68v16q0 77 -88 77q-41 0 -75.5 -10.5t-66.5 -29.5l-28 88q31 21 80 35.5t105 14.5q101 0 149 -48t48 -134v-313h-110l-14 63
q-9 -14 -21 -27.5t-29 -24t-39 -17t-50 -6.5q-31 0 -58 10t-47.5 29.5t-32.5 46.5t-12 62zM254 731q21 0 40 -7.5t33 -21t22 -31.5t8 -38t-8 -38t-22 -31.5t-33 -21t-40 -7.5t-40 7.5t-33 21t-22 31.5t-8 38t8 38t22 31.5t33 21t40 7.5zM254 668q-14 0 -21.5 -9.5
t-7.5 -25.5t7.5 -25.5t21.5 -9.5t21.5 9.5t7.5 25.5t-7.5 25.5t-21.5 9.5z" />
    <glyph glyph-name="ae" unicode="&#xe6;" horiz-adv-x="788" 
d="M451 198q11 -60 45.5 -86t82.5 -26q34 0 61 7.5t56 22.5l28 -89q-32 -19 -71 -29t-88 -10q-38 0 -66.5 8t-50.5 22.5t-37.5 33.5t-26.5 41q-25 -48 -74 -76.5t-109 -28.5q-37 0 -68 10t-53.5 29.5t-35 46.5t-12.5 62q0 46 16 78t45 52t70.5 29t92.5 9h71v16q0 77 -91 77
q-41 0 -77 -10.5t-68 -29.5l-28 88q31 21 81.5 35.5t106.5 14.5q57 0 94 -19t57 -54q22 30 59.5 51.5t91.5 21.5q49 0 86.5 -15.5t62.5 -43t38 -65.5t13 -82q0 -23 -4 -48t-10 -43h-288zM327 220h-72q-48 0 -75.5 -21t-27.5 -59q0 -27 17.5 -43.5t41.5 -16.5q25 0 46.5 9.5
t37 25.5t24 37t8.5 44v24zM554 402q-48 0 -73 -34.5t-30 -94.5h182v13q0 57 -18.5 86.5t-60.5 29.5z" />
    <glyph glyph-name="ccedilla" unicode="&#xe7;" horiz-adv-x="462" 
d="M286 86q70 0 128 32l28 -91q-34 -20 -76.5 -29.5t-83.5 -9.5q-61 0 -107.5 20t-77.5 54.5t-46.5 80.5t-15.5 99q0 52 15 98.5t46 80.5t77.5 54t109.5 20q39 0 78 -9.5t73 -29.5l-27 -89q-25 14 -53.5 22t-61.5 8q-69 0 -99 -41.5t-30 -113.5t30.5 -114t92.5 -42z
M272 -182h-133l104 140h79z" />
    <glyph glyph-name="egrave" unicode="&#xe8;" horiz-adv-x="509" 
d="M161 198q11 -59 48.5 -85.5t85.5 -26.5q65 0 122 30l28 -89q-32 -19 -73.5 -29t-90.5 -10q-62 0 -108 18t-77 51.5t-46 80.5t-15 105q0 52 14 98t42.5 80t73 54t104.5 20q49 0 87 -15.5t64.5 -43t40 -65.5t13.5 -82q0 -23 -4 -48t-10 -43h-299zM270 402
q-48 0 -77.5 -34.5t-34.5 -94.5h196v13q0 57 -21 86.5t-63 29.5zM374 590l-35 -54l-205 105l67 96z" />
    <glyph glyph-name="eacute" unicode="&#xe9;" horiz-adv-x="509" 
d="M161 198q11 -59 48.5 -85.5t85.5 -26.5q65 0 122 30l28 -89q-32 -19 -73.5 -29t-90.5 -10q-62 0 -108 18t-77 51.5t-46 80.5t-15 105q0 52 14 98t42.5 80t73 54t104.5 20q49 0 87 -15.5t64.5 -43t40 -65.5t13.5 -82q0 -23 -4 -48t-10 -43h-299zM270 402
q-48 0 -77.5 -34.5t-34.5 -94.5h196v13q0 57 -21 86.5t-63 29.5zM307 737l67 -96l-205 -105l-35 54z" />
    <glyph glyph-name="ecircumflex" unicode="&#xea;" horiz-adv-x="509" 
d="M161 198q11 -59 48.5 -85.5t85.5 -26.5q65 0 122 30l28 -89q-32 -19 -73.5 -29t-90.5 -10q-62 0 -108 18t-77 51.5t-46 80.5t-15 105q0 52 14 98t42.5 80t73 54t104.5 20q49 0 87 -15.5t64.5 -43t40 -65.5t13.5 -82q0 -23 -4 -48t-10 -43h-299zM270 402
q-48 0 -77.5 -34.5t-34.5 -94.5h196v13q0 57 -21 86.5t-63 29.5zM425 539h-126l-45 77l-45 -77h-126l134 147h74z" />
    <glyph glyph-name="edieresis" unicode="&#xeb;" horiz-adv-x="509" 
d="M161 198q11 -59 48.5 -85.5t85.5 -26.5q65 0 122 30l28 -89q-32 -19 -73.5 -29t-90.5 -10q-62 0 -108 18t-77 51.5t-46 80.5t-15 105q0 52 14 98t42.5 80t73 54t104.5 20q49 0 87 -15.5t64.5 -43t40 -65.5t13.5 -82q0 -23 -4 -48t-10 -43h-299zM270 402
q-48 0 -77.5 -34.5t-34.5 -94.5h196v13q0 57 -21 86.5t-63 29.5zM147 677q32 0 49.5 -19t17.5 -44t-17.5 -44t-49.5 -19t-49.5 19t-17.5 44t17.5 44t49.5 19zM361 677q32 0 49.5 -19t17.5 -44t-17.5 -44t-49.5 -19t-49.5 19t-17.5 44t17.5 44t49.5 19z" />
    <glyph glyph-name="igrave" unicode="&#xec;" horiz-adv-x="264" 
d="M196 0h-128v483h128v-483zM252 590l-35 -54l-205 105l67 96z" />
    <glyph glyph-name="iacute" unicode="&#xed;" horiz-adv-x="264" 
d="M196 0h-128v483h128v-483zM185 737l67 -96l-205 -105l-35 54z" />
    <glyph glyph-name="icircumflex" unicode="&#xee;" horiz-adv-x="264" 
d="M196 0h-128v483h128v-483zM303 539h-126l-45 77l-45 -77h-126l134 147h74z" />
    <glyph glyph-name="idieresis" unicode="&#xef;" horiz-adv-x="264" 
d="M196 0h-128v483h128v-483zM25 677q32 0 49.5 -19t17.5 -44t-17.5 -44t-49.5 -19t-49.5 19t-17.5 44t17.5 44t49.5 19zM239 677q32 0 49.5 -19t17.5 -44t-17.5 -44t-49.5 -19t-49.5 19t-17.5 44t17.5 44t49.5 19z" />
    <glyph glyph-name="eth" unicode="&#xf0;" horiz-adv-x="561" 
d="M193 499l-25 55l69 33q-47 30 -97 46l43 75q41 -14 77 -34t68 -44l119 56l28 -55l-96 -45q74 -68 110 -157t36 -186q0 -57 -17 -104t-49 -80.5t-77.5 -52t-101.5 -18.5q-55 0 -100 18t-77.5 50t-50 76t-17.5 96q0 51 18 95.5t49 78.5t72 53.5t86 19.5q50 0 83 -19t52 -39
h2q-12 31 -39.5 64.5t-63.5 64.5zM405 234q0 30 -8 56t-23.5 45.5t-38.5 30.5t-53 11q-28 0 -51 -11.5t-39 -31t-24.5 -46.5t-8.5 -58q0 -30 8 -56t23.5 -45.5t38 -31t51.5 -11.5q28 0 51 13.5t39.5 35t25.5 48t9 51.5z" />
    <glyph glyph-name="ntilde" unicode="&#xf1;" horiz-adv-x="574" 
d="M194 0h-128v483h114l14 -63q11 12 27.5 25.5t36.5 24.5t44.5 18t51.5 7q71 0 113.5 -50t42.5 -141v-304h-128v300q0 46 -16 69.5t-54 23.5q-35 0 -66.5 -20t-51.5 -44v-329zM452 672q0 -54 -24 -87t-66 -33q-26 0 -45 8t-34 17t-27.5 17t-26.5 8q-20 0 -26.5 -14
t-6.5 -31h-74q0 52 23.5 86t68.5 34q25 0 44 -8t34.5 -17t28 -17t24.5 -8q20 0 26 12.5t6 32.5h75z" />
    <glyph glyph-name="ograve" unicode="&#xf2;" horiz-adv-x="554" 
d="M163 242q0 -72 28 -114t86 -42t86 42t28 114t-28 113.5t-86 41.5t-86 -41.5t-28 -113.5zM35 242q0 52 15 98.5t45 80.5t75.5 54t106.5 20t106.5 -20t75.5 -54t45 -80.5t15 -98.5q0 -53 -15 -99t-45 -80.5t-75.5 -54.5t-106.5 -20t-106.5 20t-75.5 54.5t-45 80.5t-15 99z
M397 590l-35 -54l-205 105l67 96z" />
    <glyph glyph-name="oacute" unicode="&#xf3;" horiz-adv-x="554" 
d="M163 242q0 -72 28 -114t86 -42t86 42t28 114t-28 113.5t-86 41.5t-86 -41.5t-28 -113.5zM35 242q0 52 15 98.5t45 80.5t75.5 54t106.5 20t106.5 -20t75.5 -54t45 -80.5t15 -98.5q0 -53 -15 -99t-45 -80.5t-75.5 -54.5t-106.5 -20t-106.5 20t-75.5 54.5t-45 80.5t-15 99z
M330 737l67 -96l-205 -105l-35 54z" />
    <glyph glyph-name="ocircumflex" unicode="&#xf4;" horiz-adv-x="554" 
d="M163 242q0 -72 28 -114t86 -42t86 42t28 114t-28 113.5t-86 41.5t-86 -41.5t-28 -113.5zM35 242q0 52 15 98.5t45 80.5t75.5 54t106.5 20t106.5 -20t75.5 -54t45 -80.5t15 -98.5q0 -53 -15 -99t-45 -80.5t-75.5 -54.5t-106.5 -20t-106.5 20t-75.5 54.5t-45 80.5t-15 99z
M448 539h-126l-45 77l-45 -77h-126l134 147h74z" />
    <glyph glyph-name="otilde" unicode="&#xf5;" horiz-adv-x="554" 
d="M163 242q0 -72 28 -114t86 -42t86 42t28 114t-28 113.5t-86 41.5t-86 -41.5t-28 -113.5zM35 242q0 52 15 98.5t45 80.5t75.5 54t106.5 20t106.5 -20t75.5 -54t45 -80.5t15 -98.5q0 -53 -15 -99t-45 -80.5t-75.5 -54.5t-106.5 -20t-106.5 20t-75.5 54.5t-45 80.5t-15 99z
M442 672q0 -54 -24 -87t-66 -33q-26 0 -45 8t-34 17t-27.5 17t-26.5 8q-20 0 -26.5 -14t-6.5 -31h-74q0 52 23.5 86t68.5 34q25 0 44 -8t34.5 -17t28 -17t24.5 -8q20 0 26 12.5t6 32.5h75z" />
    <glyph glyph-name="odieresis" unicode="&#xf6;" horiz-adv-x="554" 
d="M163 242q0 -72 28 -114t86 -42t86 42t28 114t-28 113.5t-86 41.5t-86 -41.5t-28 -113.5zM35 242q0 52 15 98.5t45 80.5t75.5 54t106.5 20t106.5 -20t75.5 -54t45 -80.5t15 -98.5q0 -53 -15 -99t-45 -80.5t-75.5 -54.5t-106.5 -20t-106.5 20t-75.5 54.5t-45 80.5t-15 99z
M170 677q32 0 49.5 -19t17.5 -44t-17.5 -44t-49.5 -19t-49.5 19t-17.5 44t17.5 44t49.5 19zM384 677q32 0 49.5 -19t17.5 -44t-17.5 -44t-49.5 -19t-49.5 19t-17.5 44t17.5 44t49.5 19z" />
    <glyph glyph-name="divide" unicode="&#xf7;" horiz-adv-x="590" 
d="M510 233h-430v102h430v-102zM214 107q0 31 21 54.5t60 23.5t60 -23.5t21 -54.5t-21 -54.5t-60 -23.5t-60 23.5t-21 54.5zM214 463q0 31 21 54.5t60 23.5t60 -23.5t21 -54.5t-21 -54.5t-60 -23.5t-60 23.5t-21 54.5z" />
    <glyph glyph-name="oslash" unicode="&#xf8;" horiz-adv-x="554" 
d="M443 436q38 -35 57 -85t19 -109q0 -53 -15 -99t-45 -80.5t-75.5 -54.5t-106.5 -20q-32 0 -59 5.5t-50 15.5l-32 -49h-81l55 86q-38 35 -56.5 85.5t-18.5 110.5q0 52 15 98.5t45 80.5t75.5 54t106.5 20q32 0 59 -5.5t50 -16.5l32 50h81zM163 242q0 -54 15 -91l151 234
q-21 12 -52 12q-58 0 -86 -41.5t-28 -113.5zM391 242q0 54 -15 90l-151 -234q21 -12 52 -12q58 0 86 42t28 114z" />
    <glyph glyph-name="ugrave" unicode="&#xf9;" horiz-adv-x="565" 
d="M371 483h128v-483h-114l-14 63q-9 -14 -23 -27t-32 -24t-39 -17.5t-45 -6.5q-80 0 -124 46t-44 137v312h128v-308q0 -46 18.5 -65.5t56.5 -19.5q32 0 58 19t46 45v329zM402 590l-35 -54l-205 105l67 96z" />
    <glyph glyph-name="uacute" unicode="&#xfa;" horiz-adv-x="565" 
d="M371 483h128v-483h-114l-14 63q-9 -14 -23 -27t-32 -24t-39 -17.5t-45 -6.5q-80 0 -124 46t-44 137v312h128v-308q0 -46 18.5 -65.5t56.5 -19.5q32 0 58 19t46 45v329zM335 737l67 -96l-205 -105l-35 54z" />
    <glyph glyph-name="ucircumflex" unicode="&#xfb;" horiz-adv-x="565" 
d="M371 483h128v-483h-114l-14 63q-9 -14 -23 -27t-32 -24t-39 -17.5t-45 -6.5q-80 0 -124 46t-44 137v312h128v-308q0 -46 18.5 -65.5t56.5 -19.5q32 0 58 19t46 45v329zM453 539h-126l-45 77l-45 -77h-126l134 147h74z" />
    <glyph glyph-name="udieresis" unicode="&#xfc;" horiz-adv-x="565" 
d="M371 483h128v-483h-114l-14 63q-9 -14 -23 -27t-32 -24t-39 -17.5t-45 -6.5q-80 0 -124 46t-44 137v312h128v-308q0 -46 18.5 -65.5t56.5 -19.5q32 0 58 19t46 45v329zM175 677q32 0 49.5 -19t17.5 -44t-17.5 -44t-49.5 -19t-49.5 19t-17.5 44t17.5 44t49.5 19zM389 677
q32 0 49.5 -19t17.5 -44t-17.5 -44t-49.5 -19t-49.5 19t-17.5 44t17.5 44t49.5 19z" />
    <glyph glyph-name="yacute" unicode="&#xfd;" horiz-adv-x="565" 
d="M373 75q-9 -14 -23.5 -27t-32.5 -24t-39.5 -17.5t-45.5 -6.5q-80 0 -124 46t-44 137v300h128v-296q0 -46 18.5 -65.5t56.5 -19.5q32 0 58 19t46 45v317h128v-444q0 -65 -18.5 -111t-50.5 -75t-76 -42.5t-95 -13.5q-57 0 -106 13t-82 35l32 99q34 -22 70 -31t70 -9
q62 0 96 28.5t34 100.5v42zM335 737l67 -96l-205 -105l-35 54z" />
    <glyph glyph-name="thorn" unicode="&#xfe;" horiz-adv-x="571" 
d="M194 227q0 -63 29 -100t75 -37q22 0 42 8.5t35 27t23.5 49t8.5 74.5q0 68 -28 106t-73 38q-37 0 -64 -19t-48 -45v-102zM66 674h128v-254q10 13 25.5 26t35 24t42.5 18t49 7q48 0 83.5 -20.5t59 -54.5t35 -78.5t11.5 -92.5q0 -63 -16 -111.5t-43.5 -81.5t-63.5 -50.5
t-76 -17.5q-56 0 -88.5 23t-53.5 52v-254h-128v865z" />
    <glyph glyph-name="ydieresis" unicode="&#xff;" horiz-adv-x="565" 
d="M373 75q-9 -14 -23.5 -27t-32.5 -24t-39.5 -17.5t-45.5 -6.5q-80 0 -124 46t-44 137v300h128v-296q0 -46 18.5 -65.5t56.5 -19.5q32 0 58 19t46 45v317h128v-444q0 -65 -18.5 -111t-50.5 -75t-76 -42.5t-95 -13.5q-57 0 -106 13t-82 35l32 99q34 -22 70 -31t70 -9
q62 0 96 28.5t34 100.5v42zM175 677q32 0 49.5 -19t17.5 -44t-17.5 -44t-49.5 -19t-49.5 19t-17.5 44t17.5 44t49.5 19zM389 677q32 0 49.5 -19t17.5 -44t-17.5 -44t-49.5 -19t-49.5 19t-17.5 44t17.5 44t49.5 19z" />
    <glyph glyph-name="dotlessi" unicode="&#x131;" horiz-adv-x="264" 
d="M196 0h-128v483h128v-483z" />
    <glyph glyph-name="Lslash" unicode="&#x141;" horiz-adv-x="520" 
d="M70 362v312l130 1v-257l144 62v-94l-144 -62v-212h298v-112h-428v268l-62 -27v94z" />
    <glyph glyph-name="lslash" unicode="&#x142;" horiz-adv-x="264" 
d="M200 418l57 25v-94l-57 -25v-324h-130v268l-63 -27v94l63 27v312h130v-256z" />
    <glyph glyph-name="OE" unicode="&#x152;" horiz-adv-x="1020" 
d="M538 74q-30 -35 -78.5 -60.5t-118.5 -25.5q-75 0 -132 26.5t-95.5 73.5t-58 111t-19.5 138t19.5 138t58.5 111t97 73.5t134 26.5q67 0 116.5 -24t76.5 -62v74h436v-110h-312v-165h293v-110h-293v-179h318v-110h-442v74zM166 337q0 -115 47 -179t138 -64t138 64t47 179
t-47 179t-138 64t-138 -64t-47 -179z" />
    <glyph glyph-name="oe" unicode="&#x153;" horiz-adv-x="841" 
d="M493 198q11 -59 48.5 -85.5t85.5 -26.5q65 0 122 30l28 -89q-32 -19 -73.5 -29t-90.5 -10q-59 0 -106 19t-74 51q-21 -32 -60.5 -51t-95.5 -19q-61 0 -106.5 20t-75.5 54.5t-45 80.5t-15 99q0 52 15 98.5t45 80.5t75.5 54t106.5 20q55 0 94.5 -18t62.5 -50
q26 29 68.5 48.5t98.5 19.5q49 0 87 -15.5t64.5 -43t40 -65.5t13.5 -82q0 -23 -4 -48t-10 -43h-299zM163 242q0 -72 30.5 -114t88.5 -42q34 0 59 15t39 42q-13 43 -13 100q0 26 3 50t10 46q-14 28 -39 43t-59 15q-58 0 -88.5 -41.5t-30.5 -113.5zM602 402q-48 0 -77.5 -34.5
t-34.5 -94.5h196v13q0 57 -21 86.5t-63 29.5z" />
    <glyph glyph-name="Scaron" unicode="&#x160;" horiz-adv-x="539" 
d="M249 -12q-67 0 -120 13.5t-95 37.5l33 106q36 -20 81.5 -34t90.5 -14q57 0 96 22.5t39 69.5q0 23 -11.5 39t-31 28t-44 20.5t-50.5 17.5q-31 10 -66 24.5t-64.5 38t-49 58.5t-19.5 86q0 38 13.5 72t42.5 59t74 39.5t108 14.5q57 0 104.5 -11t90.5 -33l-33 -100
q-38 17 -79 26t-76 9q-60 0 -89 -21t-29 -53q0 -23 11 -39.5t29 -28.5t41 -21t47 -17q36 -12 73 -27.5t67 -39.5t49 -58.5t19 -84.5q0 -51 -19.5 -88t-53 -62t-79.5 -37t-100 -12zM306 735h-74l-134 147h126l45 -77l45 77h126z" />
    <glyph glyph-name="scaron" unicode="&#x161;" horiz-adv-x="446" 
d="M206 87q42 0 60.5 12.5t18.5 34.5q0 29 -27 44t-69 28q-31 9 -58 20.5t-47 29t-31.5 41.5t-11.5 58q0 65 51 102.5t139 37.5q42 0 85 -7.5t81 -27.5l-29 -94q-29 15 -63 22.5t-67 7.5q-38 0 -55 -10.5t-17 -30.5q0 -22 19.5 -34t51.5 -23q42 -14 74 -28.5t54 -34
t33.5 -45t11.5 -60.5q0 -61 -51 -101.5t-148 -40.5q-48 0 -94 9.5t-81 27.5l29 96q28 -14 65.5 -24t75.5 -10zM260 539h-74l-134 147h126l45 -77l45 77h126z" />
    <glyph glyph-name="Ydieresis" unicode="&#x178;" horiz-adv-x="596" 
d="M363 287v-287h-130v287l-225 387h141l150 -276l148 276h141zM191 873q32 0 49.5 -19t17.5 -44t-17.5 -44t-49.5 -19t-49.5 19t-17.5 44t17.5 44t49.5 19zM405 873q32 0 49.5 -19t17.5 -44t-17.5 -44t-49.5 -19t-49.5 19t-17.5 44t17.5 44t49.5 19z" />
    <glyph glyph-name="Zcaron" unicode="&#x17d;" horiz-adv-x="557" 
d="M32 80l320 486l-294 -2v110h455v-80l-319 -484l323 2v-112h-485v80zM315 735h-74l-134 147h126l45 -77l45 77h126z" />
    <glyph glyph-name="zcaron" unicode="&#x17e;" horiz-adv-x="458" 
d="M34 66l222 327h-204v90h360v-66l-222 -327h230v-90h-386v66zM266 539h-74l-134 147h126l45 -77l45 77h126z" />
    <glyph glyph-name="florin" unicode="&#x192;" horiz-adv-x="590" 
d="M209 307h-74v90h87l17 117q11 82 57 127t136 45q37 0 64.5 -7.5t48.5 -20.5l-37 -77q-20 13 -57 13q-42 0 -62 -21t-25 -60l-17 -116h120v-90h-133l-28 -213q-11 -82 -57 -127t-136 -45q-37 0 -64.5 7.5t-48.5 20.5l37 77q20 -13 57 -13q42 0 62 21t25 60z" />
    <glyph glyph-name="circumflex" unicode="&#x2c6;" horiz-adv-x="330" 
d="M336 539h-126l-45 77l-45 -77h-126l134 147h74z" />
    <glyph glyph-name="caron" unicode="&#x2c7;" horiz-adv-x="330" 
d="M202 539h-74l-134 147h126l45 -77l45 77h126z" />
    <glyph glyph-name="breve" unicode="&#x2d8;" horiz-adv-x="330" 
d="M165 558q-76 0 -117 37.5t-48 106.5h98q6 -26 23 -37t44 -11t44 11t23 37h98q-7 -69 -48 -106.5t-117 -37.5z" />
    <glyph glyph-name="dotaccent" unicode="&#x2d9;" horiz-adv-x="330" 
d="M165 681q35 0 53 -20.5t18 -46.5t-18 -46.5t-53 -20.5t-53 20.5t-18 46.5t18 46.5t53 20.5z" />
    <glyph glyph-name="ring" unicode="&#x2da;" horiz-adv-x="330" 
d="M165 731q21 0 40 -7.5t33 -21t22 -31.5t8 -38t-8 -38t-22 -31.5t-33 -21t-40 -7.5t-40 7.5t-33 21t-22 31.5t-8 38t8 38t22 31.5t33 21t40 7.5zM165 668q-14 0 -21.5 -9.5t-7.5 -25.5t7.5 -25.5t21.5 -9.5t21.5 9.5t7.5 25.5t-7.5 25.5t-21.5 9.5z" />
    <glyph glyph-name="ogonek" unicode="&#x2db;" horiz-adv-x="330" 
d="M114 2h79l106 -150h-133z" />
    <glyph glyph-name="tilde" unicode="&#x2dc;" horiz-adv-x="330" 
d="M330 672q0 -54 -24 -87t-66 -33q-26 0 -45 8t-34 17t-27.5 17t-26.5 8q-20 0 -26.5 -14t-6.5 -31h-74q0 52 23.5 86t68.5 34q25 0 44 -8t34.5 -17t28 -17t24.5 -8q20 0 26 12.5t6 32.5h75z" />
    <glyph glyph-name="hungarumlaut" unicode="&#x2dd;" horiz-adv-x="330" 
d="M113 691h117l-120 -143h-73zM289 691h117l-120 -143h-73z" />
    <glyph glyph-name="uni03A9" unicode="&#x3a9;" horiz-adv-x="758" 
d="M380 577q-43 0 -81.5 -15t-67.5 -42.5t-46 -66.5t-17 -88q0 -52 16.5 -98t41.5 -84t55.5 -67.5t59.5 -47.5v-68h-246v92h117q-22 18 -48.5 48t-49.5 67.5t-38.5 81.5t-15.5 91q0 69 24.5 125t67.5 96t101.5 61.5t125.5 21.5t125.5 -21.5t101.5 -61.5t67.5 -96t24.5 -125
q0 -47 -15.5 -91t-38.5 -81.5t-49.5 -67.5t-48.5 -48h117v-92h-246v68q28 18 59 47.5t56 67.5t41.5 84t16.5 98q0 49 -17 88t-45.5 66.5t-67 42.5t-80.5 15z" />
    <glyph glyph-name="pi" unicode="&#x3c0;" horiz-adv-x="642" 
d="M602 13q-20 -13 -46 -19t-52 -6q-41 0 -67 11.5t-41 32t-21 47t-6 56.5v250h-101v-181q0 -23 -2 -52.5t-6.5 -58t-11.5 -53.5t-17 -40h-129q12 20 21 48t15 57t8.5 55.5t2.5 43.5v179q-23 -4 -46.5 -9.5t-48.5 -17.5l-19 91q11 7 27.5 13.5t35.5 12t38.5 8.5t37.5 3h423
v-99h-109v-256q0 -20 8 -33.5t32 -13.5q9 0 20 3t28 12z" />
    <glyph glyph-name="uni0E00" unicode="&#xe00;" horiz-adv-x="195" 
 />
    <glyph glyph-name="uni0E01" unicode="&#xe01;" horiz-adv-x="622" 
d="M427 0v348q0 60 -32.5 90t-88.5 30q-21 0 -41.5 -5.5t-38 -15t-31 -22t-20.5 -25.5l84 -71q-31 -11 -47 -33.5t-16 -60.5v-235h-130v234q0 32 15 57t38 39l-81 66q10 34 34.5 65.5t59.5 56t80 39.5t97 15q60 0 106 -16.5t77.5 -46t48 -71t16.5 -90.5v-348h-130z" />
    <glyph glyph-name="uni0E02" unicode="&#xe02;" horiz-adv-x="567" 
d="M180 186q0 -50 24 -73t72 -23t72 25t24 79v366h130v-365q0 -98 -54.5 -152.5t-171.5 -54.5t-171.5 52t-54.5 147v52q0 32 14 56.5t31 45t31 40t14 40.5v14q0 23 -23 23h-61v102h77q39 0 64 -7.5t40 -21.5t21 -35.5t6 -49.5v-25q0 -29 -13 -51t-29 -42.5t-29 -41.5
t-13 -47v-53z" />
    <glyph glyph-name="uni0E03" unicode="&#xe03;" horiz-adv-x="576" 
d="M189 186q0 -50 24 -73t72 -23t72 25t24 79v366h130v-365q0 -98 -54.5 -152.5t-171.5 -54.5t-171.5 52t-54.5 147v66q0 31 15.5 57t34.5 48.5t34.5 43t15.5 40.5v14q0 16 -15 16q-11 0 -19 -11.5t-14 -29.5l-87 44v98l85 -43q12 15 32 26.5t53 11.5q44 0 67.5 -26.5
t23.5 -74.5v-19q0 -29 -15 -53t-33 -46t-33 -45t-15 -51v-67z" />
    <glyph glyph-name="uni0E04" unicode="&#xe04;" horiz-adv-x="638" 
d="M195 248q12 23 37.5 39t68.5 16h56v-108h-59q-46 0 -70 -18t-33 -50v-127h-130v348q0 47 17.5 88t50 71t79.5 47.5t107 17.5t107 -17.5t79.5 -47.5t50 -71t17.5 -88v-348h-130v347q0 52 -32 86.5t-92 34.5t-92 -34.5t-32 -86.5v-99z" />
    <glyph glyph-name="uni0E05" unicode="&#xe05;" horiz-adv-x="648" 
d="M195 248q12 23 38.5 39t69.5 16h58v-108h-61q-46 0 -71 -18t-34 -50v-127h-130v388q0 72 38 119t115 65l106 -65l106 65q77 -18 115 -65t38 -119v-388h-130v389q0 60 -45 69l-84 -52l-84 52q-45 -9 -45 -69v-141z" />
    <glyph glyph-name="uni0E06" unicode="&#xe06;" horiz-adv-x="615" 
d="M197 183q18 -38 53.5 -64.5t78.5 -26.5q91 0 91 115v353h130v-359q0 -106 -49.5 -159.5t-139.5 -53.5q-29 0 -53.5 7.5t-45.5 19t-37.5 26t-27.5 28.5l-14 -69h-116v253q0 31 14.5 57t31.5 48.5t31.5 43t14.5 40.5v14q0 16 -15 16q-11 0 -19 -11.5t-14 -29.5l-87 44v98
l85 -43q12 15 32 26.5t53 11.5q44 0 67.5 -26.5t23.5 -74.5v-13q0 -32 -14 -57t-30.5 -47.5t-30 -45.5t-13.5 -51v-70z" />
    <glyph glyph-name="uni0E07" unicode="&#xe07;" horiz-adv-x="567" 
d="M169 0l-169 560h128l137 -456h11q24 0 46 14t39.5 39.5t27.5 62t10 80.5q0 91 -29.5 129.5t-75.5 38.5q-31 0 -67 -13l-19 95q20 11 48.5 16.5t59.5 5.5q45 0 84 -18t67.5 -53t45 -85.5t16.5 -115.5q0 -70 -19 -125.5t-53.5 -94.5t-81.5 -59.5t-103 -20.5h-103z" />
    <glyph glyph-name="uni0E08" unicode="&#xe08;" horiz-adv-x="547" 
d="M159 0l-50 198q-5 23 -29 23h-37v104h73q39 0 64.5 -14.5t36.5 -58.5l37 -148h11q22 3 42.5 17t36.5 39t25.5 59t9.5 78q0 90 -38.5 130.5t-104.5 40.5q-48 0 -98 -17.5t-94 -55.5l-40 93q42 38 102.5 61t136.5 23q129 0 197.5 -73t68.5 -203q0 -62 -19.5 -115.5t-53 -94
t-78 -63.5t-93.5 -23h-106z" />
    <glyph glyph-name="uni0E09" unicode="&#xe09;" horiz-adv-x="598" 
d="M34 221v104h79q46 0 72.5 -22t26.5 -74v-60q0 -24 5.5 -39t14.5 -23.5t21.5 -11.5t27.5 -3q51 0 79.5 26t42.5 65v152q0 65 -30 99t-96 34q-56 0 -109 -21.5t-93 -52.5l-47 96q54 37 116.5 59.5t137.5 22.5q126 0 188.5 -62.5t62.5 -174.5v-335h-116l-14 69
q-24 -33 -62.5 -57t-101.5 -24q-76 0 -116.5 41.5t-40.5 133.5v36q0 22 -19 22h-29z" />
    <glyph glyph-name="uni0E0A" unicode="&#xe0a;" horiz-adv-x="567" 
d="M504 195q0 -98 -55 -152.5t-172 -54.5q-118 0 -172.5 51.5t-54.5 147.5v52q0 32 14 56.5t31 45t31 40t14 40.5v14q0 23 -23 23h-61v102h77q39 0 64 -7.5t40 -21.5t21 -35.5t6 -49.5v-25q0 -29 -13 -51t-29 -42.5t-29 -41.5t-13 -47v-53q0 -50 24.5 -73t72.5 -23t72.5 25
t24.5 79v104q0 32 -10.5 46t-33.5 14h-15l-20 48l106 154h136l-113 -145q40 -13 60 -46t20 -74v-100z" />
    <glyph glyph-name="uni0E0B" unicode="&#xe0b;" horiz-adv-x="574" 
d="M511 195q0 -98 -54.5 -152.5t-171.5 -54.5t-171.5 52t-54.5 147v66q0 31 15.5 57t34.5 48.5t34.5 43t15.5 40.5v14q0 16 -15 16q-11 0 -19 -11.5t-14 -29.5l-87 44v98l85 -43q12 15 32 26.5t53 11.5q44 0 67.5 -26.5t23.5 -74.5v-19q0 -29 -15 -53t-33 -46t-33 -45
t-15 -51v-67q0 -50 24 -73t72 -23t72 25t24 79v104q0 32 -10.5 46t-33.5 14h-15l-20 48l106 154h136l-113 -145q40 -13 60 -46t20 -74v-100z" />
    <glyph glyph-name="uni0E0C" unicode="&#xe0c;" horiz-adv-x="936" 
d="M741 560h130v-359q0 -106 -48.5 -159.5t-132.5 -53.5q-26 0 -49 7.5t-43 19t-36.5 26t-27.5 28.5l-14 -69h-116v348q0 60 -30 90t-80 30q-19 0 -37 -5.5t-34 -15t-28.5 -22t-19.5 -25.5l84 -71q-31 -11 -47 -33.5t-16 -60.5v-117q0 -16 15 -16h58v-102h-88
q-58 0 -86.5 29.5t-28.5 80.5v124q0 32 15 57t38 39l-81 66q10 34 33.5 65.5t57 56t76 39.5t92.5 15q57 0 101.5 -16.5t74.5 -46t45.5 -71t15.5 -90.5v-165q18 -38 52 -64.5t72 -26.5q83 0 83 115v353z" />
    <glyph glyph-name="uni0E0D" unicode="&#xe0d;" horiz-adv-x="934" 
d="M741 81q-11 -14 -27.5 -28.5t-37 -26t-44 -19t-48.5 -7.5q-83 0 -131.5 47t-48.5 148v153q0 60 -30 90t-80 30q-19 0 -37 -5.5t-34 -15t-28.5 -22t-19.5 -25.5l84 -71q-31 -11 -47 -33.5t-16 -60.5v-117q0 -16 15 -16h58v-102h-88q-58 0 -86.5 29.5t-28.5 80.5v124
q0 32 15 57t38 39l-81 66q10 34 33.5 65.5t57 56t76 39.5t92.5 15q57 0 101.5 -16.5t74.5 -46t45.5 -71t15.5 -90.5v-147q0 -54 19 -75.5t55 -21.5q45 0 79 26.5t52 64.5v365h130v-521q0 -54 -19 -94t-52 -66t-77.5 -39t-95.5 -13q-62 0 -109 12t-92 35l32 89q37 -19 80 -29
t78 -10q28 0 51 5t40 17.5t26.5 33.5t9.5 53v48z" />
    <glyph glyph-name="uni0E0E" unicode="&#xe0e;" horiz-adv-x="630" 
d="M565 -200h-136q-21 21 -55.5 36.5t-66.5 15.5q-41 0 -76.5 -11.5t-78.5 -46.5l-35 102q31 29 70.5 46t99.5 17q21 0 43 -4.5t42 -12.5t36 -18.5t27 -22.5v447q0 60 -32.5 90t-89.5 30q-44 0 -80.5 -21t-51.5 -47l94 -75q-31 -11 -45 -31.5t-14 -58.5v-125
q0 -51 -28.5 -80.5t-86.5 -29.5h-76v102h46q15 0 15 16v116q0 32 13 55t36 37l-91 70q10 34 34 65.5t59.5 56t80.5 39.5t98 15q61 0 107.5 -16.5t78 -46t47.5 -71t16 -90.5v-548z" />
    <glyph glyph-name="uni0E0F" unicode="&#xe0f;" horiz-adv-x="630" 
d="M565 -200h-134l-97 61q-20 -30 -49.5 -49.5t-76.5 -19.5q-32 0 -63 7.5t-56 21.5l33 102q20 -13 42.5 -21t46.5 -8q85 0 105 80l119 -78v452q0 60 -32.5 90t-89.5 30q-44 0 -80.5 -21t-51.5 -47l94 -75q-31 -11 -45 -31.5t-14 -58.5v-125q0 -51 -28.5 -80.5t-86.5 -29.5
h-76v102h46q15 0 15 16v116q0 32 13 55t36 37l-91 70q10 34 34 65.5t59.5 56t80.5 39.5t98 15q61 0 107.5 -16.5t78 -46t47.5 -71t16 -90.5v-548z" />
    <glyph glyph-name="uni0E10" unicode="&#xe10;" horiz-adv-x="547" 
d="M159 0l-50 198q-5 23 -29 23h-37v104h73q39 0 64.5 -14.5t36.5 -58.5l37 -148h11q22 3 42.5 17t36.5 39t25.5 59t9.5 78q0 84 -38.5 127.5t-104.5 43.5q-48 0 -98 -17.5t-94 -55.5l-40 93q42 38 102.5 61t136.5 23q57 0 107 -21l41 48h143l-94 -112q32 -37 50.5 -85.5
t18.5 -105.5q0 -62 -19.5 -115.5t-53 -94t-78 -63.5t-93.5 -23h-106zM330 -200q-32 0 -60 13.5t-42 38.5q-13 -25 -41 -38.5t-58 -13.5h-78v100h77q33 0 57.5 11t42.5 39q20 -26 41.5 -38t50.5 -12h32v57h116v-157h-138z" />
    <glyph glyph-name="uni0E11" unicode="&#xe11;" horiz-adv-x="632" 
d="M197 0h-130v234q0 28 8.5 57t21.5 55t29.5 47.5t32.5 35.5v27q0 16 -15 16q-11 0 -19 -11.5t-14 -29.5l-87 44v98l85 -43q12 15 32 26.5t53 11.5q34 0 52.5 -16.5t23.5 -45.5q23 27 59.5 46.5t81.5 19.5q31 0 59 -10.5t49.5 -33t34 -57.5t12.5 -84v-387h-130v381
q0 49 -14 68t-47 19q-36 0 -68 -21.5t-56.5 -54.5t-39 -73.5t-14.5 -79.5v-239z" />
    <glyph glyph-name="uni0E12" unicode="&#xe12;" horiz-adv-x="995" 
d="M800 560h130v-359q0 -106 -47 -159.5t-137 -53.5q-29 0 -53.5 7.5t-45 19t-37 26t-27.5 28.5l-14 -69h-116v389q0 60 -45 69l-80 -48l-76 46q-40 -20 -61 -67t-21 -116q0 -50 10.5 -83.5t27.5 -54.5t37.5 -30t40.5 -9t37.5 3t37.5 12l23 -94q-21 -13 -46.5 -19t-63.5 -6
q-47 0 -89.5 16.5t-74.5 51t-51 87.5t-19 127q0 53 13.5 101.5t39 88.5t62 68t82.5 40l91 -63l102 63q77 -18 115 -65t38 -119v-205q18 -38 53 -64.5t78 -26.5q47 0 66.5 29t19.5 86v353z" />
    <glyph glyph-name="uni0E13" unicode="&#xe13;" horiz-adv-x="936" 
d="M534 189q0 -54 19 -75.5t55 -21.5q45 0 79 26.5t52 64.5v377h130v-560h-116l-14 69q-11 -14 -27 -28.5t-36 -26t-43.5 -19t-48.5 -7.5q-83 0 -131.5 47t-48.5 148v165q0 60 -30 90t-80 30q-19 0 -37 -5.5t-34 -15t-28.5 -22t-19.5 -25.5l84 -71q-31 -11 -47 -33.5
t-16 -60.5v-117q0 -16 15 -16h58v-102h-88q-58 0 -86.5 29.5t-28.5 80.5v124q0 32 15 57t38 39l-81 66q10 34 33.5 65.5t57 56t76 39.5t92.5 15q57 0 101.5 -16.5t74.5 -46t45.5 -71t15.5 -90.5v-159z" />
    <glyph glyph-name="uni0E14" unicode="&#xe14;" horiz-adv-x="646" 
d="M451 0v339q0 59 -34.5 94t-94.5 35q-73 0 -112.5 -52.5t-39.5 -142.5q0 -50 10.5 -83.5t27.5 -54.5t37.5 -30t40.5 -9t37.5 3t37.5 12l23 -94q-21 -13 -46.5 -19t-63.5 -6q-45 0 -87 16.5t-75 51t-52.5 87.5t-19.5 126q0 63 18.5 117.5t53.5 95t87 63.5t120 23
q64 0 113 -18t82 -49.5t50 -74.5t17 -92v-338h-130z" />
    <glyph glyph-name="uni0E15" unicode="&#xe15;" horiz-adv-x="656" 
d="M332 509l106 63q77 -18 115 -65t38 -119v-388h-130v389q0 60 -45 69l-84 -48l-80 46q-40 -20 -61 -67t-21 -116q0 -50 10.5 -83.5t27.5 -54.5t37.5 -30t40.5 -9t37.5 3t37.5 12l23 -94q-21 -13 -46.5 -19t-63.5 -6q-47 0 -89.5 16.5t-74.5 51t-51 87.5t-19 127
q0 53 13.5 101.5t39 88.5t62 68t82.5 40z" />
    <glyph glyph-name="uni0E16" unicode="&#xe16;" horiz-adv-x="623" 
d="M196 118q0 -16 15 -16h58v-102h-88q-58 0 -86.5 29.5t-28.5 80.5v124q0 32 15 57t38 39l-81 66q10 34 34.5 65.5t59.5 56t80 39.5t97 15q60 0 106.5 -16.5t78 -46t48 -71t16.5 -90.5v-348h-130v348q0 60 -33 90t-89 30q-21 0 -41.5 -5.5t-38 -15t-31 -22t-20.5 -25.5
l84 -71q-31 -11 -47 -33.5t-16 -60.5v-117z" />
    <glyph glyph-name="uni0E17" unicode="&#xe17;" horiz-adv-x="631" 
d="M436 361q0 54 -17.5 80.5t-58.5 26.5q-46 0 -88 -23t-75 -61v-384h-130v560h116l14 -69q35 30 83 55.5t109 25.5q79 0 128 -53t49 -152v-367h-130v361z" />
    <glyph glyph-name="uni0E18" unicode="&#xe18;" horiz-adv-x="567" 
d="M521 166q0 -48 -13.5 -81t-43 -54t-75 -30.5t-108.5 -9.5q-64 0 -109.5 10.5t-74.5 32.5t-42.5 57t-13.5 84v53h124v-53q0 -48 27.5 -67.5t88.5 -19.5q63 0 89.5 17t26.5 61v45q0 20 -10.5 29t-29.5 12l-170 24q-69 10 -109 42.5t-40 98.5q0 71 62.5 113t177.5 42
q63 0 117.5 -11t102.5 -36l-23 -96q-48 26 -97.5 36t-97.5 10q-58 0 -88 -16t-30 -39q0 -37 50 -45l167 -24q67 -10 104.5 -42.5t37.5 -100.5v-42z" />
    <glyph glyph-name="uni0E19" unicode="&#xe19;" horiz-adv-x="621" 
d="M195 197q0 -57 24 -81t68 -24q43 0 80.5 25.5t56.5 65.5v377h130v-560h-116l-14 69q-11 -15 -28.5 -29.5t-39 -26t-47.5 -18.5t-54 -7q-89 0 -139.5 49t-50.5 154v369h130v-363z" />
    <glyph glyph-name="uni0E1A" unicode="&#xe1a;" horiz-adv-x="624" 
d="M312 -12q-117 0 -182 56t-65 169v347h130v-347q0 -58 31 -89.5t86 -31.5t86 31.5t31 89.5v347h130v-347q0 -113 -65 -169t-182 -56z" />
    <glyph glyph-name="uni0E1B" unicode="&#xe1b;" horiz-adv-x="624" 
d="M312 -12q-117 0 -182 56t-65 169v347h130v-347q0 -58 31 -89.5t86 -31.5t86 31.5t31 89.5v537h130v-537q0 -113 -65 -169t-182 -56z" />
    <glyph glyph-name="uni0E1C" unicode="&#xe1c;" horiz-adv-x="686" 
d="M388 192q-11 23 -23 57t-19 63h-2q-7 -29 -19 -63t-23 -57l-93 -192h-142v450q0 51 28.5 80.5t86.5 29.5h82v-102h-58q-15 0 -15 -16v-131q0 -47 -3.5 -93t-12.5 -102h3q13 52 27.5 89.5t26.5 60.5l73 137h80l69 -137q12 -23 26.5 -60.5t27.5 -89.5h3q-9 56 -12.5 102
t-3.5 93v249h124v-560h-142z" />
    <glyph glyph-name="uni0E1D" unicode="&#xe1d;" horiz-adv-x="686" 
d="M388 192q-11 23 -23 57t-19 63h-2q-7 -29 -19 -63t-23 -57l-93 -192h-142v450q0 51 28.5 80.5t86.5 29.5h82v-102h-58q-15 0 -15 -16v-131q0 -47 -3.5 -93t-12.5 -102h3q13 52 27.5 89.5t26.5 60.5l73 137h80l69 -137q12 -23 26.5 -60.5t27.5 -89.5h3q-9 56 -12.5 102
t-3.5 93v439h124v-750h-142z" />
    <glyph glyph-name="uni0E1E" unicode="&#xe1e;" horiz-adv-x="745" 
d="M433 532l69 -247q4 -18 8.5 -36.5t8 -40.5t6.5 -48.5t6 -59.5h3q1 67 5.5 111.5t9.5 73.5l44 275h127l-95 -560h-143l-74 256q-12 42 -20.5 87.5t-13.5 90.5h-3q-5 -45 -13.5 -90.5t-20.5 -87.5l-74 -256h-143l-95 560h127l44 -275q5 -29 9.5 -73.5t5.5 -111.5h3
q3 33 6 59.5t6.5 48.5t7.5 40.5t9 36.5l69 247h121z" />
    <glyph glyph-name="uni0E1F" unicode="&#xe1f;" horiz-adv-x="745" 
d="M436 532l74 -247q11 -35 18.5 -78.5t15.5 -106.5h3q0 59 2 101t7 84l47 465h121l-90 -750h-139l-79 256q-12 42 -23 87.5t-16 90.5h-3q-5 -45 -12.5 -90.5t-19.5 -87.5l-79 -256h-143l-95 560h127l44 -275q5 -29 9.5 -73.5t5.5 -111.5h3q3 33 7 59.5t8.5 48.5t9 40.5
t9.5 36.5l67 247h121z" />
    <glyph glyph-name="uni0E20" unicode="&#xe20;" horiz-adv-x="630" 
d="M216 110q0 -51 -28.5 -80.5t-86.5 -29.5h-76v102h46q15 0 15 16v116q0 32 13 55t36 37l-91 70q10 34 34 65.5t59.5 56t80.5 39.5t98 15q61 0 107.5 -16.5t78 -46t47.5 -71t16 -90.5v-348h-130v348q0 60 -32.5 90t-89.5 30q-44 0 -80.5 -21t-51.5 -47l94 -75
q-31 -11 -45 -31.5t-14 -58.5v-125z" />
    <glyph glyph-name="uni0E21" unicode="&#xe21;" horiz-adv-x="621" 
d="M426 560h130v-359q0 -106 -51 -159.5t-141 -53.5q-29 0 -54 7.5t-46.5 19t-38.5 26t-28 28.5l-14 -69h-116v560h130v-377q9 -19 23 -35.5t32 -29t38.5 -19.5t41.5 -7q94 0 94 115v353z" />
    <glyph glyph-name="uni0E22" unicode="&#xe22;" horiz-adv-x="603" 
d="M408 560h130v-344q0 -51 -15 -93t-47 -72t-83 -46.5t-123 -16.5q-51 0 -93 11.5t-72.5 35t-47.5 59t-17 82.5q0 48 28.5 82.5t72.5 42.5q-19 4 -37 16.5t-32.5 30t-23 40t-8.5 46.5q0 28 10.5 52.5t30 42.5t48 28.5t64.5 10.5q38 0 66.5 -5.5t49.5 -15.5l-13 -97
q-17 7 -33 10t-30 3q-33 0 -50.5 -13.5t-17.5 -36.5q0 -29 22 -44.5t48 -15.5h76l11 -100h-68q-41 0 -63.5 -20t-22.5 -55q0 -41 30 -63.5t75 -22.5q67 0 101 34t34 91v343z" />
    <glyph glyph-name="uni0E23" unicode="&#xe23;" horiz-adv-x="508" 
d="M233 92q52 0 80.5 15t28.5 46q0 18 -10.5 31t-28 22.5t-39 17t-42.5 14.5q-37 12 -70.5 26.5t-58.5 35.5t-40 49.5t-15 68.5q0 33 15.5 61t43.5 49t66.5 32.5t84.5 11.5q64 0 112.5 -14t90.5 -36l-34 -92q-39 21 -78.5 29.5t-84.5 8.5q-38 0 -64 -11.5t-26 -37.5
q0 -29 33 -45.5t86 -34.5q42 -14 76 -30t58.5 -37.5t37.5 -51t13 -69.5q0 -36 -14 -65.5t-42 -51.5t-70 -34t-99 -12q-60 0 -111.5 12.5t-91.5 35.5l31 99q37 -20 78 -31.5t84 -11.5z" />
    <glyph glyph-name="uni0E24" unicode="&#xe24;" horiz-adv-x="623" 
d="M196 118q0 -16 15 -16h58v-102h-88q-58 0 -86.5 29.5t-28.5 80.5v124q0 32 15 57t38 39l-81 66q10 34 34.5 65.5t59.5 56t80 39.5t97 15q60 0 106.5 -16.5t78 -46t48 -71t16.5 -90.5v-548h-130v548q0 60 -33 90t-89 30q-21 0 -41.5 -5.5t-38 -15t-31 -22t-20.5 -25.5
l84 -71q-31 -11 -47 -33.5t-16 -60.5v-117z" />
    <glyph glyph-name="uni0E25" unicode="&#xe25;" horiz-adv-x="596" 
d="M404 0v245h-122q-56 0 -89.5 -16.5t-33.5 -60.5q0 -36 23 -56.5t57 -20.5q18 0 37.5 3.5t39.5 13.5l21 -95q-26 -12 -53.5 -17t-58.5 -5q-41 0 -76 11t-61 33t-41 55t-15 77q0 93 64.5 135.5t195.5 42.5h112v19q0 48 -27.5 78t-86.5 30q-62 0 -108.5 -18t-86.5 -47
l-41 90q39 29 101.5 52t140.5 23q54 0 97.5 -15t74 -42t47 -65.5t16.5 -85.5v-364h-127z" />
    <glyph glyph-name="uni0E26" unicode="&#xe26;" horiz-adv-x="630" 
d="M216 110q0 -51 -28.5 -80.5t-86.5 -29.5h-76v102h46q15 0 15 16v116q0 32 13 55t36 37l-91 70q10 34 34 65.5t59.5 56t80.5 39.5t98 15q61 0 107.5 -16.5t78 -46t47.5 -71t16 -90.5v-548h-130v548q0 60 -32.5 90t-89.5 30q-44 0 -80.5 -21t-51.5 -47l94 -75
q-31 -11 -45 -31.5t-14 -58.5v-125z" />
    <glyph glyph-name="uni0E27" unicode="&#xe27;" horiz-adv-x="529" 
d="M55 140q34 -20 74.5 -34t82.5 -14q72 0 109.5 47.5t37.5 140.5q0 97 -39.5 142.5t-108.5 45.5q-42 0 -80.5 -14t-75.5 -40l-30 98q41 27 93 43.5t106 16.5q126 0 195.5 -74t69.5 -211q0 -150 -70.5 -224.5t-195.5 -74.5q-60 0 -111.5 13t-86.5 38z" />
    <glyph glyph-name="uni0E28" unicode="&#xe28;" horiz-adv-x="638" 
d="M195 248q12 23 37.5 39t68.5 16h56v-108h-59q-46 0 -70 -18t-33 -50v-127h-130v348q0 47 17.5 88t50 71t79.5 47.5t107 17.5q27 0 51.5 -5t47.5 -13l39 45h143l-89 -107q32 -32 47 -70t15 -79v-343h-130v342q0 26 -8.5 49t-24 40t-38.5 27t-53 10q-60 0 -92 -34.5
t-32 -86.5v-99z" />
    <glyph glyph-name="uni0E29" unicode="&#xe29;" horiz-adv-x="636" 
d="M312 -12q-117 0 -182 56t-65 169v347h130v-347q0 -58 31 -89.5t86 -31.5t86 31.5t31 89.5v61h-119v101h119v185h130v-185h89l-23 -101h-66v-61q0 -113 -65 -169t-182 -56z" />
    <glyph glyph-name="uni0E2A" unicode="&#xe2a;" horiz-adv-x="596" 
d="M404 0v245h-122q-56 0 -89.5 -16.5t-33.5 -60.5q0 -36 23 -56.5t57 -20.5q18 0 37.5 3.5t39.5 13.5l21 -95q-26 -12 -53.5 -17t-58.5 -5q-41 0 -76 11t-61 33t-41 55t-15 77q0 93 64.5 135.5t195.5 42.5h112v19q0 21 -7 40.5t-21 34.5t-35.5 24t-50.5 9q-62 0 -108.5 -18
t-86.5 -47l-41 90q39 29 101.5 52t140.5 23q23 0 45.5 -4t39.5 -11l34 42h143l-82 -98q26 -28 40.5 -63t14.5 -74v-364h-127z" />
    <glyph glyph-name="uni0E2B" unicode="&#xe2b;" horiz-adv-x="608" 
d="M461 0l-79 239q-15 42 -37.5 59.5t-49.5 19.5l-98 -84v-234h-130v560h130v-190l227 190h164l-204 -168q51 -14 77.5 -45t42.5 -76l90 -271h-133z" />
    <glyph glyph-name="uni0E2C" unicode="&#xe2c;" horiz-adv-x="686" 
d="M619 0h-142l-93 192q-11 23 -23 57t-19 63h-2q-7 -29 -19 -63t-23 -57l-89 -192h-142v560h124v-249q0 -47 -3.5 -93t-12.5 -102h3q13 52 27.5 89.5t26.5 60.5l69 137h80l73 -137q12 -23 26.5 -60.5t27.5 -89.5h3q-9 56 -12.5 102t-3.5 93v130q0 31 -13.5 50.5t-42.5 19.5
h-13l-20 48l140 191h130l-149 -182q44 -9 68 -45t24 -92v-431z" />
    <glyph glyph-name="uni0E2D" unicode="&#xe2d;" horiz-adv-x="606" 
d="M182 221q-18 0 -18 -19v-3q0 -107 119 -107q71 0 112 47t41 147q0 88 -44.5 135t-116.5 47q-61 0 -110 -21.5t-87 -50.5l-42 97q42 30 103 54.5t145 24.5q62 0 114 -19t89.5 -56t58 -91t20.5 -124q0 -148 -73.5 -221t-199.5 -73q-64 0 -112 15t-79.5 43t-47.5 67t-16 86
v17q0 55 24 82t78 27h128v-104h-86z" />
    <glyph glyph-name="uni0E2E" unicode="&#xe2e;" horiz-adv-x="606" 
d="M182 221q-18 0 -18 -19v-3q0 -107 119 -107q71 0 112 47t41 147q0 84 -44.5 133t-116.5 49q-61 0 -110 -21.5t-87 -50.5l-42 97q42 30 103 54.5t145 24.5q52 0 100 -17l38 44h143l-85 -101q40 -38 63 -92.5t23 -123.5q0 -148 -73.5 -221t-199.5 -73q-64 0 -112 15
t-79.5 43t-47.5 67t-16 86v17q0 55 24 82t78 27h128v-104h-86z" />
    <glyph glyph-name="uni0E2F" unicode="&#xe2f;" horiz-adv-x="556" 
d="M361 0v383q-20 -36 -60 -60t-91 -24q-43 0 -76.5 15t-56.5 42t-35 63.5t-12 79.5v61h128v-61q0 -52 20 -75t52 -23q25 0 49 8.5t43 25t30 39.5t11 53v33h128v-560h-130z" />
    <glyph glyph-name="uni0E30" unicode="&#xe30;" horiz-adv-x="325" 
d="M158 455q0 -23 23 -23h102v-98h-132q-24 0 -44.5 6t-35.5 19.5t-24 35t-9 53.5v46h120v-39zM158 185q0 -23 23 -23h102v-98h-132q-24 0 -44.5 6t-35.5 19.5t-24 35t-9 53.5v46h120v-39z" />
    <glyph glyph-name="uni0E31" unicode="&#xe31;" 
d="M-198 751q0 -23 23 -23h256v-98h-286q-24 0 -44.5 6t-35.5 19.5t-24 35t-9 53.5v50h120v-43z" />
    <glyph glyph-name="uni0E32" unicode="&#xe32;" horiz-adv-x="488" 
d="M293 0v360q0 108 -90 108q-45 0 -88.5 -16t-77.5 -38l-33 93q41 27 95.5 46t114.5 19q103 0 156 -58t53 -158v-356h-130z" />
    <glyph glyph-name="uni0E33" unicode="&#xe33;" horiz-adv-x="488" 
d="M293 0v360q0 108 -90 108q-45 0 -88.5 -16t-77.5 -38l-33 93q41 27 95.5 46t114.5 19q103 0 156 -58t53 -158v-356h-130zM-132 615q-23 0 -43.5 8.5t-35.5 23.5t-24 35t-9 44t9 44t24 35t35.5 23.5t43.5 8.5q24 0 44.5 -8.5t35.5 -23.5t24 -35t9 -44t-9 -44t-24 -35
t-35.5 -23.5t-44.5 -8.5zM-132 687q17 0 28 11.5t11 28.5t-11 28t-28 11q-15 0 -26.5 -11t-11.5 -28t11.5 -28.5t26.5 -11.5z" />
    <glyph glyph-name="uni0E34" unicode="&#xe34;" 
d="M-520 630v98h455v-98h-455z" />
    <glyph glyph-name="uni0E35" unicode="&#xe35;" 
d="M-520 630v98h339v95h116v-193h-455z" />
    <glyph glyph-name="uni0E36" unicode="&#xe36;" 
d="M-520 630v98h275q0 46 30 75.5t73 29.5t73 -29t30 -73q0 -43 -30 -72t-73 -29h-378zM-142 696q15 0 25 10.5t10 25.5q0 16 -10 26t-25 10q-14 0 -24.5 -10t-10.5 -26q0 -15 10.5 -25.5t24.5 -10.5z" />
    <glyph glyph-name="uni0E37" unicode="&#xe37;" 
d="M-520 630v98h231v95h90v-100h44v100h90v-193h-455z" />
    <glyph glyph-name="uni0E38" unicode="&#xe38;" 
d="M-183 -185q0 24 -24 24h-38v96h84q49 0 72.5 -21t23.5 -70v-125h-118v96z" />
    <glyph glyph-name="uni0E39" unicode="&#xe39;" 
d="M-215 -290q-72 0 -110 31.5t-38 81.5v21h-58v91h170v-112q0 -17 11 -24.5t25 -7.5q15 0 25.5 7.5t10.5 24.5v112h114v-112q0 -50 -39 -81.5t-111 -31.5z" />
    <glyph glyph-name="uni0E3A" unicode="&#xe3a;" 
d="M-47 -137q0 -32 -23.5 -55t-57.5 -23q-16 0 -30.5 6.5t-25.5 17t-17.5 24.5t-6.5 30t6.5 30t17.5 25t25.5 17.5t30.5 6.5q34 0 57.5 -23.5t23.5 -55.5z" />
    <glyph glyph-name="uni0E3F" unicode="&#xe3f;" horiz-adv-x="590" 
d="M268 0h-198v652h198v98h64v-99q95 -7 141 -53.5t46 -120.5q0 -26 -8 -46.5t-20.5 -37t-28 -28.5t-30.5 -20q48 -14 80.5 -51.5t32.5 -102.5q0 -38 -12.5 -71.5t-38.5 -58.5t-66.5 -41t-95.5 -19v-101h-64v100zM268 104v181h-74v-181h74zM421 197q0 36 -23 57.5t-66 27.5
v-176q42 7 65.5 30.5t23.5 60.5zM268 387v161h-74v-161h74zM397 470q0 30 -17 49.5t-48 25.5v-156q29 6 47 26t18 55z" />
    <glyph glyph-name="uni0E40" unicode="&#xe40;" horiz-adv-x="266" 
d="M198 560v-560h-130v560h130z" />
    <glyph glyph-name="uni0E41" unicode="&#xe41;" horiz-adv-x="494" 
d="M198 560v-560h-130v560h130zM426 560v-560h-130v560h130z" />
    <glyph glyph-name="uni0E42" unicode="&#xe42;" horiz-adv-x="302" 
d="M103 0v600q0 39 -10.5 69.5t-26 52t-34.5 35.5t-37 22l-2 34q32 52 96 88.5t155 36.5q63 0 105.5 -10t79.5 -24l-21 -105q-41 20 -79 28t-79 8q-48 0 -78.5 -14t-48.5 -31q51 -30 81 -78t30 -120v-592h-131z" />
    <glyph glyph-name="uni0E43" unicode="&#xe43;" horiz-adv-x="302" 
d="M103 0v515q0 42 18.5 77t41 65.5t41.5 58t19 54.5q0 26 -16 45.5t-52 19.5q-42 0 -71 -19.5t-58 -53.5l-48 79q35 45 85.5 71t118.5 26q40 0 71.5 -13t53.5 -34.5t33.5 -50.5t11.5 -60q0 -46 -18.5 -79.5t-40.5 -63.5t-40.5 -60t-18.5 -69v-508h-131z" />
    <glyph glyph-name="uni0E44" unicode="&#xe44;" horiz-adv-x="302" 
d="M103 0v639q0 66 22.5 111t67.5 68h-193v103h329v-94q-50 -22 -72.5 -69t-22.5 -110v-648h-131z" />
    <glyph glyph-name="uni0E45" unicode="&#xe45;" horiz-adv-x="488" 
d="M293 -200v560q0 108 -90 108q-45 0 -88.5 -16t-77.5 -38l-33 93q41 27 95.5 46t114.5 19q103 0 156 -58t53 -158v-556h-130z" />
    <glyph glyph-name="uni0E46" unicode="&#xe46;" horiz-adv-x="580" 
d="M385 -200v622q0 52 -32 58l-81 -58l-90 59q-16 -5 -22.5 -21t-6.5 -36q0 -26 14.5 -40.5t30.5 -14.5q4 0 15 0.5t31 8.5l17 -88q-35 -19 -81 -19q-27 0 -53 9t-46 28t-32.5 48t-12.5 69q0 35 12.5 62t33.5 45.5t47.5 28.5t54.5 12l88 -62l87 61q76 -5 116 -49.5
t40 -116.5v-606h-130z" />
    <glyph glyph-name="uni0E47" unicode="&#xe47;" 
d="M-176 630q-25 0 -46 14t-33 37q-11 -24 -34 -40t-58 -16q-58 0 -95 31t-37 91q0 24 9.5 47t28 41t46.5 28.5t64 10.5h231v-89h-228q-52 0 -52 -39q0 -18 12 -29.5t29 -11.5q20 0 33.5 12.5t17.5 30.5l63 1q4 -14 15.5 -22t29.5 -8h81v-89h-77z" />
    <glyph glyph-name="uni0E48" unicode="&#xe48;" 
d="M-181 877v164h116v-164h-116z" />
    <glyph glyph-name="uni0E49" unicode="&#xe49;" 
d="M-159 984q0 -15 14 -15h134v-92h-190q-23 0 -37 13t-14 35v25q0 15 -14 15h-58v93h101q29 0 46.5 -13t17.5 -42v-19z" />
    <glyph glyph-name="uni0E4A" unicode="&#xe4a;" 
d="M-177 877l-6 15q8 11 8 33q0 13 -7 22.5t-19 11.5l-47 -31l-48 28q-8 -3 -11.5 -11.5t-3.5 -19.5q0 -19 3.5 -29t8.5 -21h-88q-20 31 -20 71q0 15 6 31t18.5 29.5t30.5 23t42 10.5l60 -45l56 46q21 -1 37 -9t27.5 -20.5t17.5 -29t6 -34.5v-12t-2 -12q14 15 19.5 41.5
t5.5 47.5q0 24 -16 55h99q6 -13 9 -26.5t3 -31.5q0 -26 -9.5 -49.5t-27 -42.5t-41.5 -30t-52 -11h-59z" />
    <glyph glyph-name="uni0E4B" unicode="&#xe4b;" 
d="M-262 1033l89 -3l-3 73h106l-3 -73l89 3v-86l-89 3l3 -73h-106l3 73l-89 -3v86z" />
    <glyph glyph-name="uni0E4C" unicode="&#xe4c;" 
d="M-99 842q-11 0 -18.5 -7t-7.5 -20v-35h-119v53q0 49 30.5 77.5t90.5 28.5h110v-97h-86z" />
    <glyph glyph-name="uni0E4D" unicode="&#xe4d;" 
d="M-132 615q-23 0 -43.5 8.5t-35.5 23.5t-24 35t-9 44t9 44t24 35t35.5 23.5t43.5 8.5q24 0 44.5 -8.5t35.5 -23.5t24 -35t9 -44t-9 -44t-24 -35t-35.5 -23.5t-44.5 -8.5zM-132 687q17 0 28 11.5t11 28.5t-11 28t-28 11q-15 0 -26.5 -11t-11.5 -28t11.5 -28.5t26.5 -11.5z
" />
    <glyph glyph-name="uni0E4E" unicode="&#xe4e;" 
d="M-140 644q-34 -20 -76 -20q-55 0 -90.5 23t-35.5 76q0 21 8 40t24.5 32.5t42 19t59.5 0.5q-8 7 -14.5 17.5t-6.5 24.5q0 19 16.5 35t57.5 16h82l18 -71h-82q-5 0 -8.5 -4.5t-3.5 -10.5q0 -9 11 -16t25 -14l-21 -47q-20 7 -36 9.5t-33 2.5t-31.5 -7t-14.5 -21t12 -23
t32 -9q11 0 27.5 2.5t37.5 10.5v-66z" />
    <glyph glyph-name="uni0E4F" unicode="&#xe4f;" horiz-adv-x="546" 
d="M273 26q-44 0 -83 17t-68 46t-45.5 68t-16.5 83t16.5 83t45.5 68t68 45.5t83 16.5t83 -16.5t68 -45.5t45.5 -68t16.5 -83t-16.5 -83t-45.5 -68t-68 -46t-83 -17zM273 71q35 0 66 13t54 36t36 54t13 66t-13 65.5t-36 53.5t-54 36.5t-66 13.5t-65.5 -13.5t-53.5 -36.5
t-36.5 -53.5t-13.5 -65.5t13.5 -66t36.5 -54t53.5 -36t65.5 -13zM273 117q-26 0 -48.5 9.5t-39.5 26t-26.5 39t-9.5 47.5q0 26 10 49t26.5 39.5t39 26t47.5 9.5q26 0 48.5 -9.5t39.5 -26.5t26.5 -39.5t9.5 -47.5q0 -26 -10 -48.5t-26.5 -39t-39 -26t-47.5 -9.5zM273 190
q20 0 34 14.5t14 35.5q0 20 -14.5 34t-34.5 14t-34.5 -14.5t-14.5 -34.5t14.5 -34.5t35.5 -14.5z" />
    <glyph glyph-name="uni0E50" unicode="&#xe50;" horiz-adv-x="650" 
d="M168 242q0 -36 12 -64.5t33 -49t49.5 -31.5t61.5 -11q34 0 63 11t50 31.5t33 49t12 64.5t-12 64.5t-33 48.5t-50 31t-63 11q-33 0 -61.5 -11t-49.5 -31t-33 -48.5t-12 -64.5zM40 242q0 60 22.5 107.5t61 79.5t90.5 49t111 17t111 -17t90.5 -49t61 -79.5t22.5 -107.5
t-22.5 -107.5t-61 -80t-90.5 -49.5t-111 -17t-111 17t-90.5 49.5t-61 80t-22.5 107.5z" />
    <glyph glyph-name="uni0E51" unicode="&#xe51;" horiz-adv-x="663" 
d="M252 -15h27q41 0 80 12.5t69 38.5t48.5 67.5t18.5 100.5q0 48 -13 84t-36.5 60.5t-55.5 36.5t-69 12q-69 0 -112 -36.5t-43 -98.5q0 -57 26.5 -88t68.5 -31q24 0 50 4t49 15l10 -87q-24 -14 -52.5 -21t-56.5 -7q-45 0 -85.5 13t-71 39.5t-48.5 67t-18 94.5q0 55 21 98.5
t58.5 73.5t88.5 46t112 16q69 0 125 -20t96 -57.5t62 -91t22 -120.5q0 -79 -27.5 -138.5t-75 -99.5t-112 -60.5t-138.5 -20.5h-30z" />
    <glyph glyph-name="uni0E52" unicode="&#xe52;" horiz-adv-x="764" 
d="M704 202q0 -45 -13.5 -82t-39.5 -63.5t-64 -41.5t-88 -15h-232q-50 0 -88 15t-64 41.5t-39.5 63.5t-13.5 82v358h128v-358q0 -49 22.5 -76.5t59.5 -27.5h223q36 0 58.5 27.5t22.5 76.5v113q0 64 -40 78l-74 -50l-76 50q-13 -5 -22.5 -20.5t-9.5 -37.5q0 -25 15.5 -48
t44.5 -33l-26 -73q-69 10 -112 51t-43 115q0 24 8 48t23.5 44.5t40 35t57.5 20.5l100 -72l91 72q78 -11 114.5 -54t36.5 -128v-111z" />
    <glyph glyph-name="uni0E53" unicode="&#xe53;" horiz-adv-x="681" 
d="M286 180v146q0 33 -8.5 52.5t-34.5 19.5q-19 0 -32.5 -11.5t-22.5 -31.5t-13.5 -47.5t-4.5 -60.5q0 -72 21.5 -115.5t60.5 -43.5q22 0 51 13l23 -79q-18 -15 -39.5 -22.5t-42.5 -7.5q-94 0 -148 66.5t-54 187.5q0 57 14 103t39.5 78.5t60 50t76.5 17.5q39 0 67 -18.5
t44 -53.5q18 32 47 52t80 20q33 0 60.5 -11.5t48 -32.5t31.5 -51.5t11 -68.5v-331h-128v332q0 25 -8.5 45.5t-34.5 20.5q-27 0 -39.5 -19.5t-12.5 -52.5v-146h-112z" />
    <glyph glyph-name="uni0E54" unicode="&#xe54;" horiz-adv-x="625" 
d="M503 0q-43 0 -70 8t-49 28q-16 -18 -46 -33t-80 -15q-47 0 -87 17t-69 49t-45.5 78t-16.5 104q0 62 20 108.5t56 77t85.5 46t108.5 15.5h109q37 0 47.5 11.5t10.5 29.5v36h126v-36q0 -71 -45.5 -105t-126.5 -34h-120q-69 0 -106 -35.5t-37 -112.5q0 -69 31.5 -110
t76.5 -41q23 0 39 5.5t27 13.5q-11 16 -17 36.5t-6 40.5q0 33 11.5 56.5t30.5 37.5t44.5 20.5t54.5 6.5h88l-21 -96h-41q-18 0 -32.5 -12.5t-14.5 -35.5q0 -27 20.5 -45t65.5 -18h77l-21 -96h-78z" />
    <glyph glyph-name="uni0E55" unicode="&#xe55;" horiz-adv-x="625" 
d="M503 0q-43 0 -70 8t-49 28q-16 -18 -46 -33t-80 -15q-47 0 -87 17t-69 49t-45.5 78t-16.5 104q0 87 37.5 143t103.5 82q-5 17 -5 34q0 23 8.5 42.5t23 34t34 22.5t41.5 8q46 0 77.5 -30.5t31.5 -76.5q0 -3 -0.5 -6t-0.5 -6h28q37 0 47.5 11.5t10.5 29.5v36h126v-36
q0 -71 -45 -105t-127 -34h-120q-69 0 -106 -35.5t-37 -112.5q0 -69 31.5 -110t76.5 -41q23 0 39 5.5t27 13.5q-11 16 -17 36.5t-6 40.5q0 33 11.5 56.5t30.5 37.5t44.5 20.5t54.5 6.5h88l-21 -96h-41q-18 0 -32.5 -12.5t-14.5 -35.5q0 -27 20.5 -45t65.5 -18h77l-21 -96h-78
zM283 461q15 0 25 10.5t10 24.5q0 15 -10 25t-25 10q-13 0 -23 -10t-10 -25q0 -14 10 -24.5t23 -10.5z" />
    <glyph glyph-name="uni0E56" unicode="&#xe56;" horiz-adv-x="623" 
d="M208 224q-11 -14 -17.5 -28t-6.5 -31q0 -32 29 -55.5t89 -23.5q37 0 65.5 13.5t48 36t29.5 52.5t10 63q0 66 -38.5 106t-108.5 40q-42 0 -76 -15t-56 -42h-98l-78 230h129l36 -145q26 29 70 49.5t101 20.5q49 0 93.5 -17t78.5 -49.5t54.5 -78t20.5 -102.5
q0 -50 -16.5 -97t-51 -83t-88 -58t-126.5 -22q-59 0 -103.5 13.5t-75.5 37t-46.5 56t-15.5 71.5q0 42 16.5 71t42.5 51z" />
    <glyph glyph-name="uni0E57" unicode="&#xe57;" horiz-adv-x="833" 
d="M271 300v34q0 33 -6 48.5t-30 15.5q-18 0 -30 -11.5t-20 -31.5t-11.5 -47.5t-3.5 -60.5q0 -72 21.5 -115.5t60.5 -43.5q22 0 51 13l23 -79q-18 -15 -39.5 -22.5t-42.5 -7.5q-94 0 -148 66.5t-54 187.5q0 57 13 103t37 78.5t57.5 50t73.5 17.5q72 0 95 -64q30 64 114 64
q60 0 95 -44t35 -120v-245h19q68 0 68 81v393h124v-387q0 -79 -46.5 -126t-142.5 -47h-146v338q0 26 -9 43t-31 17q-20 0 -27.5 -16t-7.5 -48v-34h-92z" />
    <glyph glyph-name="uni0E58" unicode="&#xe58;" horiz-adv-x="667" 
d="M297 385q-55 0 -83 -29.5t-28 -77.5v-98q0 -41 14.5 -57.5t36.5 -18.5l111 79l119 -78q18 8 30 24.5t12 39.5q0 29 -19.5 46t-46.5 21l38 95q72 -11 111 -53.5t39 -111.5q0 -34 -14 -64.5t-37 -54t-52.5 -38.5t-60.5 -16l-118 84l-106 -83q-91 2 -138 47t-47 126v116
q0 43 16.5 80t47 63.5t73.5 41.5t96 15h138q37 0 47.5 11.5t10.5 29.5v36h126v-36q0 -71 -45.5 -105t-126.5 -34h-144z" />
    <glyph glyph-name="uni0E59" unicode="&#xe59;" horiz-adv-x="644" 
d="M421 0l-119 338q-11 29 -23 44t-36 15q-35 0 -55 -40.5t-20 -106.5q0 -80 23 -121t54 -41q18 0 34 4.5t36 15.5l26 -86q-23 -17 -49.5 -24.5t-53.5 -7.5q-41 0 -77 17.5t-63 50.5t-42.5 81t-15.5 110q0 57 15.5 102.5t42 77.5t63 49t78.5 17q45 0 78 -17.5t50 -50.5
q1 29 20.5 48.5t52.5 19.5q53 0 74 -52l19 117h111l-42 -210h-96q-8 31 -21 41.5t-32 10.5q-18 0 -28 -12.5t-10 -29.5l126 -360h-120z" />
    <glyph glyph-name="uni0E5B" unicode="&#xe5b;" horiz-adv-x="1154" 
d="M1144 184q-59 -18 -99 -18q-42 0 -73 19t-53 54l-38 -123h-52l-58 156l-54 -174h-53l-55 154q-16 -45 -44 -83.5t-65.5 -66.5t-84.5 -44t-101 -16q-59 0 -106.5 19t-80.5 52t-51 78.5t-18 98.5q0 50 17 92.5t48 73t73 48t93 17.5q46 0 81.5 -17.5t60 -46t37.5 -65.5
t14 -76h-90q-4 54 -31 87.5t-73 33.5q-32 0 -56 -12.5t-40.5 -33t-25 -47t-8.5 -54.5q0 -37 12.5 -66.5t34.5 -50t52.5 -31.5t65.5 -11q58 0 102 30t73.5 76.5t45.5 102t19 106.5h61l65 -186l48 165h59l55 -156l42 133h54q2 -82 32.5 -122.5t74.5 -40.5q28 0 64 13z" />
    <glyph glyph-name="endash" unicode="&#x2013;" horiz-adv-x="536" 
d="M516 295v-93h-496v93h496z" />
    <glyph glyph-name="emdash" unicode="&#x2014;" horiz-adv-x="976" 
d="M926 295v-93h-876v93h876z" />
    <glyph glyph-name="quoteleft" unicode="&#x2018;" horiz-adv-x="228" 
d="M171 669q-8 -11 -14.5 -23.5t-11 -25t-7.5 -23.5t-3 -18q0 -5 2 -9.5t10 -4.5q22 0 32.5 -18t10.5 -41q0 -27 -16.5 -44t-47.5 -17q-74 0 -74 71q0 20 6.5 43t17 46.5t23.5 44.5t25 37z" />
    <glyph glyph-name="quoteright" unicode="&#x2019;" horiz-adv-x="228" 
d="M57 463q7 10 14 23t11.5 25.5t7.5 23.5t3 18q0 5 -2 9.5t-10 4.5q-22 0 -32.5 18t-10.5 41q0 27 16.5 44t47.5 17q74 0 74 -71q0 -20 -6.5 -43t-17 -46.5t-23.5 -44.5t-25 -37l-47 18v0z" />
    <glyph glyph-name="quotesinglbase" unicode="&#x201a;" horiz-adv-x="228" 
d="M57 -87q7 10 14 23t11.5 25.5t7.5 23.5t3 18q0 5 -2 9.5t-10 4.5q-22 0 -32.5 18t-10.5 41q0 27 16.5 44t47.5 17q74 0 74 -71q0 -20 -6.5 -43t-17 -46.5t-23.5 -44.5t-25 -37z" />
    <glyph glyph-name="quotedblleft" unicode="&#x201c;" horiz-adv-x="404" 
d="M171 669q-8 -11 -14.5 -23.5t-11 -25t-7.5 -23.5t-3 -18q0 -5 2 -9.5t10 -4.5q22 0 32.5 -18t10.5 -41q0 -27 -16.5 -44t-47.5 -17q-74 0 -74 71q0 20 6.5 43t17 46.5t23.5 44.5t25 37zM347 669q-8 -11 -14.5 -23.5t-11 -25t-7.5 -23.5t-3 -18q0 -5 2 -9.5t10 -4.5
q22 0 32.5 -18t10.5 -41q0 -27 -16.5 -44t-47.5 -17q-74 0 -74 71q0 20 6.5 43t17 46.5t23.5 44.5t25 37z" />
    <glyph glyph-name="quotedblright" unicode="&#x201d;" horiz-adv-x="404" 
d="M233 463q7 10 14 23t11.5 25.5t7.5 23.5t3 18q0 5 -2 9.5t-10 4.5q-22 0 -32.5 18t-10.5 41q0 27 16.5 44t47.5 17q74 0 74 -71q0 -20 -6.5 -43t-17 -46.5t-23.5 -44.5t-25 -37zM57 463q7 10 14 23t11.5 25.5t7.5 23.5t3 18q0 5 -2 9.5t-10 4.5q-22 0 -32.5 18t-10.5 41
q0 27 16.5 44t47.5 17q74 0 74 -71q0 -20 -6.5 -43t-17 -46.5t-23.5 -44.5t-25 -37z" />
    <glyph glyph-name="quotedblbase" unicode="&#x201e;" horiz-adv-x="404" 
d="M233 -87q7 10 14 23t11.5 25.5t7.5 23.5t3 18q0 5 -2 9.5t-10 4.5q-22 0 -32.5 18t-10.5 41q0 27 16.5 44t47.5 17q74 0 74 -71q0 -20 -6.5 -43t-17 -46.5t-23.5 -44.5t-25 -37zM57 -87q7 10 14 23t11.5 25.5t7.5 23.5t3 18q0 5 -2 9.5t-10 4.5q-22 0 -32.5 18t-10.5 41
q0 27 16.5 44t47.5 17q74 0 74 -71q0 -20 -6.5 -43t-17 -46.5t-23.5 -44.5t-25 -37z" />
    <glyph glyph-name="dagger" unicode="&#x2020;" horiz-adv-x="547" 
d="M337 0h-127v393h-166v90h166v191h127v-191h166v-90h-166v-393z" />
    <glyph glyph-name="daggerdbl" unicode="&#x2021;" horiz-adv-x="547" 
d="M337 231h166v-90h-166v-191h-127v191h-166v90h166v162h-166v90h166v191h127v-191h166v-90h-166v-162z" />
    <glyph glyph-name="bullet" unicode="&#x2022;" horiz-adv-x="324" 
d="M162 215q-31 0 -54 9.5t-38 25t-22.5 36.5t-7.5 45q0 48 30 82.5t92 34.5t92 -34.5t30 -82.5q0 -24 -7.5 -45t-23 -36.5t-38.5 -25t-53 -9.5z" />
    <glyph glyph-name="ellipsis" unicode="&#x2026;" horiz-adv-x="786" 
d="M50 65q0 31 21 54.5t60 23.5t60 -23.5t21 -54.5t-21 -54.5t-60 -23.5t-60 23.5t-21 54.5zM312 65q0 31 21 54.5t60 23.5t60 -23.5t21 -54.5t-21 -54.5t-60 -23.5t-60 23.5t-21 54.5zM574 65q0 31 21 54.5t60 23.5t60 -23.5t21 -54.5t-21 -54.5t-60 -23.5t-60 23.5
t-21 54.5z" />
    <glyph glyph-name="perthousand" unicode="&#x2030;" horiz-adv-x="1142" 
d="M520 660h119l-367 -660h-119zM132 485q0 -42 12.5 -70.5t35.5 -28.5t35.5 28.5t12.5 70.5t-12.5 70.5t-35.5 28.5t-35.5 -28.5t-12.5 -70.5zM30 485q0 36 10.5 68t30 56.5t47 38.5t62.5 14t62.5 -14t47 -38.5t30 -56.5t10.5 -68t-10.5 -68t-30 -56.5t-47 -38.5t-62.5 -14
t-62.5 14t-47 38.5t-30 56.5t-10.5 68zM564 165q0 -42 12.5 -70.5t35.5 -28.5t35.5 28.5t12.5 70.5t-12.5 70.5t-35.5 28.5t-35.5 -28.5t-12.5 -70.5zM462 165q0 36 10.5 68t30 56.5t47 38.5t62.5 14t62.5 -14t47 -38.5t30 -56.5t10.5 -68t-10.5 -68t-30 -56.5t-47 -38.5
t-62.5 -14t-62.5 14t-47 38.5t-30 56.5t-10.5 68zM914 165q0 -42 12.5 -70.5t35.5 -28.5t35.5 28.5t12.5 70.5t-12.5 70.5t-35.5 28.5t-35.5 -28.5t-12.5 -70.5zM812 165q0 36 10.5 68t30 56.5t47 38.5t62.5 14t62.5 -14t47 -38.5t30 -56.5t10.5 -68t-10.5 -68t-30 -56.5
t-47 -38.5t-62.5 -14t-62.5 14t-47 38.5t-30 56.5t-10.5 68z" />
    <glyph glyph-name="guilsinglleft" unicode="&#x2039;" horiz-adv-x="301" 
d="M144 242l127 -180h-123l-128 180l128 180h123z" />
    <glyph glyph-name="guilsinglright" unicode="&#x203a;" horiz-adv-x="301" 
d="M30 422h123l128 -180l-128 -180h-123l127 180z" />
    <glyph glyph-name="fraction" unicode="&#x2044;" horiz-adv-x="486" 
d="M367 660h119l-367 -660h-119z" />
    <glyph glyph-name="Euro" unicode="&#x20ac;" horiz-adv-x="590" 
d="M62 303h48q-1 8 -1 16.5v17.5v18t1 18h-68l20 64h56q10 49 30 94.5t52.5 79.5t78 54.5t105.5 20.5q49 0 89 -14t68 -42l-34 -102q-25 30 -56 43t-58 13q-21 0 -43 -7.5t-42.5 -24.5t-37 -45t-25.5 -70h205l-20 -64h-194q-1 -9 -1 -18v-18v-17.5t1 -16.5h214l-20 -64h-185
q9 -42 25.5 -71t37 -46t42.5 -24.5t43 -7.5q27 0 58 13t56 43l34 -102q-28 -28 -68 -42t-89 -14q-60 0 -106 20.5t-78 55t-52.5 80t-29.5 95.5h-76z" />
    <glyph glyph-name="afii61289" unicode="&#x2113;" horiz-adv-x="415" 
d="M224 336q9 16 19.5 35t19.5 42.5t14.5 53t5.5 67.5t-8.5 60t-19.5 22q-15 0 -23 -32.5t-8 -93.5v-154zM50 115l-50 71q29 17 54 34t48 37v233q0 97 41.5 152.5t117.5 55.5q25 0 49.5 -10t43 -30.5t30 -51t11.5 -72.5q0 -86 -45.5 -167.5t-121.5 -142.5v-71
q0 -35 10.5 -47.5t31.5 -12.5q34 0 63 16l27 -90q-20 -13 -49.5 -22t-68.5 -9q-140 0 -140 161z" />
    <glyph glyph-name="trademark" unicode="&#x2122;" horiz-adv-x="812" 
d="M205 613v-319h-73v319l-112 -1v62h300v-62zM569 421q7 22 15.5 43t16.5 40l76 170h85v-379h-73v189q0 22 2 39.5t4 33.5h-3q-3 -10 -8.5 -27t-16.5 -40l-61 -134h-75l-59 134q-11 23 -17 40t-8 27h-3q1 -16 3 -33.5t2 -39.5v-189h-72v379h85l75 -170q8 -19 16 -40t15 -43
h1z" />
    <glyph glyph-name="Omega" unicode="&#x2126;" horiz-adv-x="758" 
d="M380 577q-43 0 -81.5 -15t-67.5 -42.5t-46 -66.5t-17 -88q0 -52 16.5 -98t41.5 -84t55.5 -67.5t59.5 -47.5v-68h-246v92h117q-22 18 -48.5 48t-49.5 67.5t-38.5 81.5t-15.5 91q0 69 24.5 125t67.5 96t101.5 61.5t125.5 21.5t125.5 -21.5t101.5 -61.5t67.5 -96t24.5 -125
q0 -47 -15.5 -91t-38.5 -81.5t-49.5 -67.5t-48.5 -48h117v-92h-246v68q28 18 59 47.5t56 67.5t41.5 84t16.5 98q0 49 -17 88t-45.5 66.5t-67 42.5t-80.5 15z" />
    <glyph glyph-name="estimated" unicode="&#x212e;" horiz-adv-x="818" 
d="M782 309h-610v-183q9 -11 31.5 -30t54 -37t70.5 -31.5t80 -13.5q43 0 81.5 12t69.5 29t53.5 36.5t33.5 34.5h72q-57 -69 -139 -104t-170 -35q-77 0 -145 24.5t-118.5 69t-80 106.5t-29.5 136q0 73 29.5 135t80 106.5t118.5 69.5t145 25t145 -24.5t118.5 -68.5t80 -104
t29.5 -131v-22zM646 519q-11 15 -33.5 34.5t-54 37t-69.5 29t-81 11.5q-41 0 -80 -13.5t-70.5 -31.5t-54 -37t-31.5 -30v-182h474v182z" />
    <glyph glyph-name="partialdiff" unicode="&#x2202;" horiz-adv-x="606" 
d="M305 338q-33 0 -59 -14t-44 -36.5t-27.5 -51t-9.5 -57.5q0 -42 18.5 -62.5t51.5 -20.5q27 0 53.5 13.5t50 38t42.5 60.5t31 81q-17 20 -44.5 34.5t-62.5 14.5zM339 555q-34 0 -69 -9t-64 -27l-19 96q33 20 81 33t96 13q100 0 153 -59t53 -165q0 -42 -9 -92t-28 -99.5
t-47.5 -95.5t-67 -81.5t-87 -56.5t-107.5 -21q-90 0 -140 48.5t-50 130.5q0 52 20.5 101.5t56.5 88t85.5 62t108.5 23.5q26 0 45.5 -4.5t35 -12.5t28.5 -18t25 -20q4 10 6.5 24t2.5 31q0 53 -28.5 81.5t-80.5 28.5z" />
    <glyph glyph-name="Delta" unicode="&#x2206;" horiz-adv-x="640" 
d="M319 476l-136 -375h269zM620 0h-600l266 674h66z" />
    <glyph glyph-name="product" unicode="&#x220f;" horiz-adv-x="619" 
d="M80 674h459v-721h-122v619h-215v-619h-122v721z" />
    <glyph glyph-name="summation" unicode="&#x2211;" horiz-adv-x="555" 
d="M36 -48v59l234 306l-216 295v62h453v-86h-299l200 -270l-213 -280h330v-86h-489z" />
    <glyph glyph-name="minus" unicode="&#x2212;" horiz-adv-x="590" 
d="M510 233h-430v102h430v-102z" />
    <glyph glyph-name="radical" unicode="&#x221a;" horiz-adv-x="532" 
d="M12 298v91h162l77 -251l153 536h108l-208 -685h-104l-104 309h-84z" />
    <glyph glyph-name="infinity" unicode="&#x221e;" horiz-adv-x="780" 
d="M221 222q18 0 36.5 7t35.5 19t32 28t27 34q-26 37 -61 55t-72 18q-41 0 -62 -19.5t-21 -52.5q0 -38 23.5 -63.5t61.5 -25.5zM643 311q0 33 -20 58.5t-64 25.5q-38 0 -70 -23.5t-61 -61.5q26 -40 60 -58.5t72 -18.5q43 0 63 22t20 56zM730 311q0 -33 -11.5 -61.5
t-33 -49.5t-52 -33t-67.5 -12q-56 0 -101.5 26.5t-75.5 64.5q-15 -18 -34 -34t-41.5 -29t-47.5 -20.5t-52 -7.5q-36 0 -66 11t-51.5 31t-34 49t-12.5 64q0 34 12 62t34 48.5t52.5 31.5t66.5 11q59 0 101.5 -26.5t74.5 -64.5q12 16 28.5 32t38.5 29t48 21.5t58 8.5
q36 0 66 -11t52.5 -31t35 -48t12.5 -62z" />
    <glyph glyph-name="integral" unicode="&#x222b;" horiz-adv-x="444" 
d="M286 118q0 -174 -142 -174q-39 0 -68.5 9t-49.5 22l27 90q29 -16 63 -16q21 0 31.5 12.5t10.5 47.5v403q0 174 142 174q39 0 68.5 -9t49.5 -22l-27 -90q-29 16 -63 16q-21 0 -31.5 -12.5t-10.5 -47.5v-403z" />
    <glyph glyph-name="approxequal" unicode="&#x2248;" horiz-adv-x="590" 
d="M369 287q-28 0 -51.5 11t-45 24.5t-42.5 24.5t-44 11q-28 0 -49 -19.5t-41 -51.5l-60 61q9 20 22.5 41t32.5 38t44.5 28t58.5 11q29 0 52 -11t44 -24.5t42 -24.5t45 -11q28 0 49 19.5t41 51.5l60 -61q-9 -20 -22.5 -41t-32.5 -38t-44.5 -28t-58.5 -11zM369 97
q-28 0 -51.5 11t-45 24.5t-42.5 24.5t-44 11q-28 0 -49 -19.5t-41 -51.5l-60 61q9 20 22.5 41t32.5 38t44.5 28t58.5 11q29 0 52 -11t44 -24.5t42 -24.5t45 -11q28 0 49 19.5t41 51.5l60 -61q-9 -20 -22.5 -41t-32.5 -38t-44.5 -28t-58.5 -11z" />
    <glyph glyph-name="notequal" unicode="&#x2260;" horiz-adv-x="590" 
d="M389 415h121v-92h-158l-36 -92h194v-92h-231l-55 -139h-77l55 139h-122v92h159l36 92h-195v92h232l65 163h77z" />
    <glyph glyph-name="lessequal" unicode="&#x2264;" horiz-adv-x="590" 
d="M60 393l452 236v-123l-313 -149l313 -149v-122l-452 235v72zM512 0h-452v72h452v-72z" />
    <glyph glyph-name="greaterequal" unicode="&#x2265;" horiz-adv-x="590" 
d="M530 0h-452v72h452v-72zM530 321l-452 -235v122l313 149l-313 149v123l452 -236v-72z" />
    <glyph glyph-name="lozenge" unicode="&#x25ca;" horiz-adv-x="598" 
d="M433 342l-134 219l-136 -219q19 -28 35 -55l32 -54t32.5 -54t36.5 -56zM566 342l-228 -342h-78l-228 341l228 343h78z" />
    <glyph glyph-name="uni0E10.alt1" unicode="&#xf700;" horiz-adv-x="547" 
d="M159 0l-50 198q-5 23 -29 23h-37v104h73q39 0 64.5 -14.5t36.5 -58.5l37 -148h11q22 3 42.5 17t36.5 39t25.5 59t9.5 78q0 84 -38.5 127.5t-104.5 43.5q-48 0 -98 -17.5t-94 -55.5l-40 93q42 38 102.5 61t136.5 23q57 0 107 -21l41 48h143l-94 -112q32 -37 50.5 -85.5
t18.5 -105.5q0 -62 -19.5 -115.5t-53 -94t-78 -63.5t-93.5 -23h-106z" />
    <glyph glyph-name="uni0E34.alt1" unicode="&#xf701;" 
d="M-629 630v98h379v-98h-379z" />
    <glyph glyph-name="uni0E35.alt1" unicode="&#xf702;" 
d="M-629 630v98h263v95h116v-193h-379z" />
    <glyph glyph-name="uni0E36.alt1" unicode="&#xf703;" 
d="M-629 630v98h199q0 46 30 75.5t73 29.5t73 -29t30 -73q0 -43 -30 -72t-73 -29h-302zM-327 696q15 0 25 10.5t10 25.5q0 16 -10 26t-25 10q-14 0 -24.5 -10t-10.5 -26q0 -15 10.5 -25.5t24.5 -10.5z" />
    <glyph glyph-name="uni0E37.alt1" unicode="&#xf704;" 
d="M-629 630v98h155v95h90v-100h44v100h90v-193h-379z" />
    <glyph glyph-name="uni0E48.alt1" unicode="&#xf705;" 
d="M-390 630v194h120v-194h-120z" />
    <glyph glyph-name="uni0E49.alt1" unicode="&#xf706;" 
d="M-375 745q0 -15 14 -15h117v-100h-178q-23 0 -37.5 13t-14.5 36v25q0 15 -14 15h-59v103h107q30 0 47.5 -13.5t17.5 -42.5v-21z" />
    <glyph glyph-name="uni0E4A.alt1" unicode="&#xf707;" 
d="M-423 630l-7 17q9 10 9 39q0 14 -7.5 24.5t-20.5 12.5l-42 -27l-50 24q-10 -4 -13.5 -13.5t-3.5 -20.5q0 -21 4 -33.5t10 -24.5h-90q-11 17 -17 37.5t-6 40.5q0 16 7 34t20.5 33t33.5 25t46 11l57 -42l51 44q23 -1 41 -10t31 -23t19.5 -32.5t6.5 -37.5q0 -7 -0.5 -13
t-2.5 -13q7 8 12.5 20t8.5 25.5t4.5 27t1.5 25.5q0 27 -17 61h101q7 -15 10 -30t3 -35q0 -28 -9.5 -54t-26.5 -46.5t-42.5 -33t-56.5 -12.5h-65z" />
    <glyph glyph-name="uni0E4B.alt1" unicode="&#xf708;" 
d="M-534 804l98 -3l-3 87h110l-3 -87l98 3v-89l-98 3l3 -88h-110l3 88l-98 -3v89z" />
    <glyph glyph-name="uni0E4C.alt1" unicode="&#xf709;" 
d="M-334 702q-12 0 -20.5 -7.5t-8.5 -22.5v-42h-126v59q0 54 33.5 85t99.5 31h112v-103h-90z" />
    <glyph glyph-name="uni0E48.alt2" unicode="&#xf70a;" 
d="M-190 630v194h120v-194h-120z" />
    <glyph glyph-name="uni0E49.alt2" unicode="&#xf70b;" 
d="M-175 745q0 -15 14 -15h117v-100h-178q-23 0 -37.5 13t-14.5 36v25q0 15 -14 15h-59v103h107q30 0 47.5 -13.5t17.5 -42.5v-21z" />
    <glyph glyph-name="uni0E4A.alt2" unicode="&#xf70c;" 
d="M-183 630l-7 17q9 10 9 35q0 14 -7.5 24.5t-20.5 12.5l-47 -27l-54 24q-10 -4 -15.5 -13.5t-5.5 -20.5q0 -21 4 -31.5t10 -22.5h-90q-11 17 -17 37.5t-6 40.5q0 16 7.5 34t21.5 33t35 25t47 11l61 -42l56 44q23 -1 41 -10t31 -23t19.5 -32.5t6.5 -37.5q0 -7 -0.5 -13
t-2.5 -13q7 8 12.5 20t8.5 25.5t4.5 27t1.5 25.5q0 27 -17 61h101q7 -15 10 -30t3 -35q0 -28 -9.5 -54t-26.5 -46.5t-42.5 -33t-56.5 -12.5h-65z" />
    <glyph glyph-name="uni0E4B.alt2" unicode="&#xf70d;" 
d="M-279 804l98 -3l-3 87h110l-3 -87l98 3v-89l-98 3l3 -88h-110l3 88l-98 -3v89z" />
    <glyph glyph-name="uni0E4C.alt2" unicode="&#xf70e;" 
d="M-114 702q-12 0 -20.5 -7.5t-8.5 -22.5v-42h-126v59q0 54 33.5 85t99.5 31h128v-103h-106z" />
    <glyph glyph-name="uni0E0D.alt1" unicode="&#xf70f;" horiz-adv-x="936" 
d="M534 207q0 -57 22.5 -86t80.5 -29t81 29t23 86v353h130v-359q0 -106 -59 -159.5t-175 -53.5t-174.5 53.5t-58.5 159.5v147q0 60 -30 90t-80 30q-19 0 -37 -5.5t-34 -15t-28.5 -22t-19.5 -25.5l84 -71q-31 -11 -47 -33.5t-16 -60.5v-117q0 -16 15 -16h58v-102h-88
q-58 0 -86.5 29.5t-28.5 80.5v124q0 32 15 57t38 39l-81 66q10 34 33.5 65.5t57 56t76 39.5t92.5 15q57 0 101.5 -16.5t74.5 -46t45.5 -71t15.5 -90.5v-141z" />
    <glyph glyph-name="uni0E31.alt1" unicode="&#xf710;" 
d="M-368 751q0 -23 23 -23h206v-98h-236q-24 0 -44.5 6t-35.5 19.5t-24 35t-9 53.5v50h120v-43z" />
    <glyph glyph-name="uni0E4D.alt1" unicode="&#xf711;" 
d="M-364 615q-23 0 -43.5 8.5t-35.5 23.5t-24 35t-9 44t9 44t24 35t35.5 23.5t43.5 8.5q24 0 44.5 -8.5t35.5 -23.5t24 -35t9 -44t-9 -44t-24 -35t-35.5 -23.5t-44.5 -8.5zM-364 687q17 0 28 11.5t11 28.5t-11 28t-28 11q-15 0 -26.5 -11t-11.5 -28t11.5 -28.5t26.5 -11.5z
" />
    <glyph glyph-name="uni0E47.alt1" unicode="&#xf712;" 
d="M-318 630q-25 0 -46 14t-33 37q-11 -24 -34 -40t-58 -16q-58 0 -95 31t-37 91q0 24 9.5 47t28 41t46.5 28.5t64 10.5h221v-89h-218q-52 0 -52 -39q0 -18 12 -29.5t29 -11.5q20 0 33.5 12.5t17.5 30.5l63 1q4 -14 15.5 -22t29.5 -8h71v-89h-67z" />
    <glyph glyph-name="uni0E48.alt3" unicode="&#xf713;" 
d="M-366 877v164h116v-164h-116z" />
    <glyph glyph-name="uni0E49.alt3" unicode="&#xf714;" 
d="M-344 984q0 -15 14 -15h134v-92h-190q-23 0 -37 13t-14 35v25q0 15 -14 15h-58v93h101q29 0 46.5 -13t17.5 -42v-19z" />
    <glyph glyph-name="uni0E4A.alt3" unicode="&#xf715;" 
d="M-362 877l-6 15q8 11 8 33q0 13 -7 22.5t-19 11.5l-47 -31l-48 28q-8 -3 -11.5 -11.5t-3.5 -19.5q0 -19 3.5 -29t8.5 -21h-88q-20 31 -20 71q0 15 6 31t18.5 29.5t30.5 23t42 10.5l60 -45l56 46q21 -1 37 -9t27.5 -20.5t17.5 -29t6 -34.5v-12t-2 -12q14 15 19.5 41.5
t5.5 47.5q0 24 -16 55h99q6 -13 9 -26.5t3 -31.5q0 -26 -9.5 -49.5t-27 -42.5t-41.5 -30t-52 -11h-59z" />
    <glyph glyph-name="uni0E4B.alt3" unicode="&#xf716;" 
d="M-447 1033l89 -3l-3 73h106l-3 -73l89 3v-86l-89 3l3 -73h-106l3 73l-89 -3v86z" />
    <glyph glyph-name="uni0E4C.alt3" unicode="&#xf717;" 
d="M-284 842q-11 0 -18.5 -7t-7.5 -20v-35h-119v53q0 49 30.5 77.5t90.5 28.5h110v-97h-86z" />
    <glyph glyph-name="uni0E38.alt1" unicode="&#xf718;" 
d="M-183 -369q0 24 -24 24h-38v96h84q49 0 72.5 -21t23.5 -70v-125h-118v96z" />
    <glyph glyph-name="uni0E39.alt1" unicode="&#xf719;" 
d="M-215 -474q-72 0 -110 31.5t-38 81.5v21h-58v91h170v-112q0 -17 11 -24.5t25 -7.5q15 0 25.5 7.5t10.5 24.5v112h114v-112q0 -50 -39 -81.5t-111 -31.5z" />
    <glyph glyph-name="uni0E3A.alt1" unicode="&#xf71a;" 
d="M-47 -320q0 -32 -23.5 -55t-57.5 -23q-16 0 -30.5 6.5t-25.5 17t-17.5 24.5t-6.5 30t6.5 30t17.5 25t25.5 17.5t30.5 6.5q34 0 57.5 -23.5t23.5 -55.5z" />
    <glyph glyph-name="uni0E0E.alt1" unicode="&#xf71b;" horiz-adv-x="630" 
d="M565 -180h-136q-21 21 -55.5 36.5t-66.5 15.5q-41 0 -76.5 -11.5t-78.5 -46.5l-35 102q31 29 70.5 46t99.5 17q21 0 43 -4.5t42 -12.5t36 -18.5t27 -22.5v427q0 60 -32.5 90t-89.5 30q-44 0 -80.5 -21t-51.5 -47l94 -75q-31 -11 -45 -31.5t-14 -58.5v-125
q0 -51 -28.5 -80.5t-86.5 -29.5h-76v102h46q15 0 15 16v116q0 32 13 55t36 37l-91 70q10 34 34 65.5t59.5 56t80.5 39.5t98 15q61 0 107.5 -16.5t78 -46t47.5 -71t16 -90.5v-528z" />
    <glyph glyph-name="uni0E0F.alt1" unicode="&#xf71c;" horiz-adv-x="630" 
d="M565 -180h-134l-97 61q-20 -30 -49.5 -49.5t-76.5 -19.5q-32 0 -63 7.5t-56 21.5l33 102q20 -13 42.5 -21t46.5 -8q85 0 105 80l119 -78v432q0 60 -32.5 90t-89.5 30q-44 0 -80.5 -21t-51.5 -47l94 -75q-31 -11 -45 -31.5t-14 -58.5v-125q0 -51 -28.5 -80.5t-86.5 -29.5
h-76v102h46q15 0 15 16v116q0 32 13 55t36 37l-91 70q10 34 34 65.5t59.5 56t80.5 39.5t98 15q61 0 107.5 -16.5t78 -46t47.5 -71t16 -90.5v-528z" />
    <glyph glyph-name="uni0E2C.alt1" unicode="&#xf71d;" horiz-adv-x="686" 
d="M619 0h-142l-93 192q-11 23 -23 57t-19 63h-2q-7 -29 -19 -63t-23 -57l-89 -192h-142v560h124v-249q0 -47 -3.5 -93t-12.5 -102h3q13 52 27.5 89.5t26.5 60.5l69 137h80l73 -137q12 -23 26.5 -60.5t27.5 -89.5h3q-9 56 -12.5 102t-3.5 93v26q0 32 -10.5 46t-33.5 14h-15
l-20 48l106 154h130l-113 -145q40 -13 60 -46t20 -74v-334z" />
    <glyph glyph-name="uni0E33.alt1" horiz-adv-x="488" 
d="M293 0v360q0 108 -90 108q-45 0 -88.5 -16t-77.5 -38l-33 93q41 27 95.5 46t114.5 19q103 0 156 -58t53 -158v-356h-130zM-364 615q-23 0 -43.5 8.5t-35.5 23.5t-24 35t-9 44t9 44t24 35t35.5 23.5t43.5 8.5q24 0 44.5 -8.5t35.5 -23.5t24 -35t9 -44t-9 -44t-24 -35
t-35.5 -23.5t-44.5 -8.5zM-364 687q17 0 28 11.5t11 28.5t-11 28t-28 11q-15 0 -26.5 -11t-11.5 -28t11.5 -28.5t26.5 -11.5z" />
    <glyph glyph-name="uni0E4E.alt1" 
d="M-270 644q-34 -20 -76 -20q-55 0 -90.5 23t-35.5 76q0 21 8 40t24.5 32.5t42 19t59.5 0.5q-8 7 -14.5 17.5t-6.5 24.5q0 19 16.5 35t57.5 16h82l18 -71h-82q-5 0 -8.5 -4.5t-3.5 -10.5q0 -9 11 -16t25 -14l-21 -47q-20 7 -36 9.5t-33 2.5t-31.5 -7t-14.5 -21t12 -23
t32 -9q11 0 27.5 2.5t37.5 10.5v-66z" />
    </font>
</defs>
</svg>
